<?xml version="1.0" standalone="no"?>
<!DOCTYPE svg PUBLIC "-//W3C//DTD SVG 1.1//EN" "http://www.w3.org/Graphics/SVG/1.1/DTD/svg11.dtd" >
<svg xmlns="http://www.w3.org/2000/svg" xmlns:xlink="http://www.w3.org/1999/xlink" version="1.1">
<metadata>
Created by FontForge 20170812 at Tue Aug 30 20:06:22 2022
 By www-data
</metadata>
<defs>
<font id="WritingBookRegular" horiz-adv-x="323" >
  <font-face 
    font-family="Writing Book"
    font-weight="400"
    font-stretch="normal"
    units-per-em="1000"
    panose-1="0 0 0 0 0 0 0 0 0 0"
    ascent="800"
    descent="-200"
    x-height="692.804"
    cap-height="694.394"
    bbox="-76 -331.354 778.934 923.862"
    underline-thickness="50"
    underline-position="-100"
    unicode-range="U+000A-20AC"
  />
<missing-glyph horiz-adv-x="527" 
d="M50 700h427v-700h-427v700zM78 680l185 -309l186 309h-371zM251 350l-180 300v-601zM264 329l-185 -308h370zM276 350l181 -303v605z" />
    <glyph glyph-name=".notdef" horiz-adv-x="527" 
d="M50 700h427v-700h-427v700zM78 680l185 -309l186 309h-371zM251 350l-180 300v-601zM264 329l-185 -308h370zM276 350l181 -303v605z" />
    <glyph glyph-name=".null" horiz-adv-x="0" 
 />
    <glyph glyph-name=".null" horiz-adv-x="0" 
 />
    <glyph glyph-name="LF" unicode="&#xa;" horiz-adv-x="0" 
 />
    <glyph glyph-name="controlCR" unicode="&#xd;" horiz-adv-x="0" 
 />
    <glyph glyph-name="space" unicode=" " horiz-adv-x="189" 
 />
    <glyph glyph-name="exclam" unicode="!" horiz-adv-x="173" 
d="M58 191.19l0.548828 30.4854c3.20996 176.884 0.798828 355.963 -7.17285 532.276l-1.375 30.457l60.9199 2.75488l1.38086 -30.4629c8.02734 -177.588 10.4551 -357.97 7.22266 -536.129l-0.554688 -30.4854zM122.49 35.7168
c1.44141 -30.2578 1.25293 -60.9209 -0.554688 -91.1396l-1.82422 -30.4355l-60.8701 3.64746l1.82422 30.4355c1.67969 28.0459 1.85156 56.5078 0.515625 84.5928l-1.45215 30.457l60.9092 2.89941z" />
    <glyph glyph-name="quotedbl" unicode="&#x22;" horiz-adv-x="269" 
d="M58.2871 804.888l3.4209 30.2969l60.5986 -6.84668l-3.42578 -30.3018c-6.14258 -54.3398 -8.7207 -110.237 -7.66699 -166.141l0.576172 -30.4854l-60.9697 -1.14746l-0.576172 30.4854c-1.10352 58.5586 1.60156 117.15 8.04297 174.14zM219.416 828.338
l-3.43066 -30.3018c-6.14258 -54.3398 -8.7207 -110.237 -7.66699 -166.141l0.576172 -30.4854l-60.9697 -1.14746l-0.576172 30.4854c-1.10352 58.5586 1.60156 117.15 8.04297 174.14l3.42578 30.2969z" />
    <glyph glyph-name="quotedbl" unicode="&#x201d;" horiz-adv-x="269" 
d="M58.2871 804.888l3.4209 30.2969l60.5986 -6.84668l-3.42578 -30.3018c-6.14258 -54.3398 -8.7207 -110.237 -7.66699 -166.141l0.576172 -30.4854l-60.9697 -1.14746l-0.576172 30.4854c-1.10352 58.5586 1.60156 117.15 8.04297 174.14zM219.416 828.338
l-3.43066 -30.3018c-6.14258 -54.3398 -8.7207 -110.237 -7.66699 -166.141l0.576172 -30.4854l-60.9697 -1.14746l-0.576172 30.4854c-1.10352 58.5586 1.60156 117.15 8.04297 174.14l3.42578 30.2969z" />
    <glyph glyph-name="quotedbl" unicode="&#x201c;" horiz-adv-x="269" 
d="M58.2871 804.888l3.4209 30.2969l60.5986 -6.84668l-3.42578 -30.3018c-6.14258 -54.3398 -8.7207 -110.237 -7.66699 -166.141l0.576172 -30.4854l-60.9697 -1.14746l-0.576172 30.4854c-1.10352 58.5586 1.60156 117.15 8.04297 174.14zM219.416 828.338
l-3.43066 -30.3018c-6.14258 -54.3398 -8.7207 -110.237 -7.66699 -166.141l0.576172 -30.4854l-60.9697 -1.14746l-0.576172 30.4854c-1.10352 58.5586 1.60156 117.15 8.04297 174.14l3.42578 30.2969z" />
    <glyph glyph-name="numbersign" unicode="#" horiz-adv-x="487" 
d="M403.142 380.221c-21.5098 1.14746 -42.6953 1.96484 -63.7451 2.55762c-1.53027 -20.1963 -3.03809 -40.3975 -4.47363 -60.6211c19.2705 -0.609375 38.6348 -1.36914 58.2822 -2.41699l30.4463 -1.62988l-3.25391 -60.8867l-30.4463 1.62402
c-19.9736 1.06445 -39.6484 1.8291 -59.2285 2.42773c-5.75488 -86.8486 -10.6611 -173.835 -14.6475 -260.595l-1.39746 -30.457l-60.915 2.79395l1.39746 30.457c3.96387 86.2109 8.82031 172.648 14.5195 258.959
c-13.1162 0.0771484 -26.2324 0.0380859 -39.3486 -0.100586c-5.78809 -87.2031 -10.7168 -174.539 -14.7197 -261.653l-1.39746 -30.457l-60.915 2.79395l1.39746 30.457c3.93652 85.7119 8.75391 171.646 14.4141 257.451
c-27.8242 -0.992188 -55.8975 -2.40625 -84.5693 -4.34668l-30.4189 -2.0625l-4.125 60.8428l30.4238 2.0625c31.5273 2.13965 62.3506 3.6416 92.9072 4.65039c1.41406 20.041 2.89453 40.0654 4.40234 60.0781c-26.3213 -0.981445 -52.8984 -2.37305 -79.9902 -4.20801
l-30.4238 -2.0625l-4.125 60.8428l30.4189 2.0625c30.1299 2.04004 59.6172 3.50879 88.8438 4.52344c6.3418 79.1924 13.3604 158.085 21.1162 236.368l3.00488 30.3467l60.6816 -6.00977l-3.00488 -30.3467c-7.51172 -75.8379 -14.3135 -152.264 -20.5 -228.967
c13.0947 0.132812 26.1895 0.166016 39.2891 0.0888672c6.31445 78.6992 13.2881 157.099 20.9941 234.894l3.00488 30.3467l60.6816 -6.00977l-3.00488 -30.3467c-7.54492 -76.1875 -14.3799 -152.963 -20.5889 -230.021
c20.5781 -0.615234 41.2676 -1.41309 62.2676 -2.53809l30.4463 -1.62988l-3.25391 -60.8867zM273.87 323.428c1.4248 20.1455 2.9209 40.2637 4.43457 60.376c-13.1055 0.0556641 -26.2168 -0.00488281 -39.3281 -0.166016
c-1.51855 -20.0684 -3.02051 -40.1367 -4.45117 -60.2324c13.1113 0.111328 26.2227 0.12207 39.3447 0.0224609z" />
    <glyph glyph-name="dollar" unicode="$" horiz-adv-x="341" 
d="M277.949 272.889c13.4268 -47.2051 20.5664 -118.841 0.292969 -178.314c-14.6523 -42.9863 -42.8809 -73.4326 -75.8496 -84.0654c0.249023 -27.2529 0.514648 -54.5947 0.814453 -82.1748l0.333008 -30.4902l-60.9756 -0.660156l-0.333008 30.4902
c-0.316406 28.9824 -0.59375 57.71 -0.854492 86.3379c-29.9248 13.4492 -55.3096 43.6846 -68.7422 84.0371l-9.62988 28.9326l57.8604 19.2646l9.62988 -28.9326c2.80469 -8.4209 6.31348 -15.8223 10.2051 -22.209c-0.748047 100.187 -1.16406 198.771 -1.25293 297.267
c-1.39746 1.65723 -2.7334 3.27637 -4.15234 4.95605c-16.7422 19.8525 -34.0498 40.3867 -50.127 64.7295c-9.01953 13.6484 -20.3291 32.4531 -27.7852 56.8516c-7.0459 23.0508 -9.12988 50.2207 -5.89258 76.498c9.45801 76.7754 48.7686 116.929 88.8887 132.285
c0.22168 33.8447 0.470703 67.8447 0.758789 102.122l0.260742 30.4902l60.9814 -0.521484l-0.254883 -30.4902c-0.283203 -33.1406 -0.527344 -66.0098 -0.738281 -98.7402c41.7998 -16.5977 72.3789 -75.3057 76.1152 -130.222l2.07324 -30.4189l-60.8428 -4.14648
l-2.07324 30.4189c-1.4248 20.8994 -8.08887 39.1387 -15.7393 52.7598c-0.376953 -78.7266 -0.542969 -156.688 -0.509766 -234.611c3.14844 -3.8584 6.30273 -7.68945 9.41797 -11.6865c21.0771 -26.998 51.0635 -69.8184 68.1211 -129.757zM139.46 490.785
c0.0664062 54.833 0.245117 109.804 0.516602 165.152c-12.2354 -12.3906 -23.667 -33.1631 -27.958 -67.9941c-2.18945 -17.7236 -0.842773 -36.3945 3.68652 -51.2236c5.13867 -16.8193 13.1719 -30.1904 20.3457 -41.0508
c1.11426 -1.67969 2.28418 -3.2373 3.40918 -4.88379zM220.521 114.248c12.9668 38.041 12.4902 93.7617 -1.22461 141.953c-4.76758 16.7646 -10.9492 32.6084 -18.6992 48.2471c0.21582 -74.0029 0.615234 -148.328 1.19727 -223.579
c7.06836 7.65625 13.71 18.666 18.7266 33.3789z" />
    <glyph glyph-name="percent" unicode="%" horiz-adv-x="592" 
d="M407.893 707.229l-7.24512 -29.627c-22.1748 -90.6738 -40.4639 -172.76 -59.8223 -259.669c-29.1377 -130.821 -59.2734 -266.094 -103.856 -433.559l-7.84473 -29.459l-58.9297 15.6885l7.84473 29.459c44.2607 166.263 74.2578 300.915 103.263 431.132
c19.4307 87.2305 37.7803 169.616 60.1104 260.899l7.24609 29.6201zM191.266 309.061c-13.0664 -15.667 -29.6543 -23.8838 -46.9287 -23.8779c-7.56738 0 -15.2617 1.57422 -22.8457 4.80078c-20.002 8.50391 -37.0596 27.9678 -49.333 56.2852
c-11.0596 25.5342 -18.3936 58.0928 -20.6494 91.6768c-9.34082 139.009 25.6016 250.033 81.2715 258.249c17.3018 2.57227 33.916 -2.27832 47.9912 -13.9863c46.4844 -38.6455 52.7988 -147.236 53.5918 -168.613c2.0957 -56.2852 -4.10254 -111.783 -17.0029 -152.258
c-1.49121 -4.67871 -3.07715 -9.22461 -4.71777 -13.5039l-0.00585938 -0.0273438c-6.17578 -16.1152 -13.3662 -29.1543 -21.3711 -38.7451zM159.261 379.854c10.8438 34.0215 16.0049 81.9434 14.1641 131.477c-2.33984 63.0381 -19.0654 113.064 -30.4971 123.231
c-12.834 -14.8076 -38.2959 -77.5352 -30.5684 -192.529c1.7793 -26.4268 7.52246 -52.4932 15.7607 -71.5195c5.97656 -13.7988 12.0029 -20.7178 15.4785 -23.3398c0.249023 0.265625 0.532227 0.582031 0.836914 0.948242c2.0791 2.48926 6.30371 8.59863 11.249 21.4824
c1.25293 3.27637 2.44531 6.70215 3.57617 10.25zM541.368 212.551c2.08984 -56.2852 -4.10352 -111.782 -17.0098 -152.263c-1.50195 -4.70703 -3.09277 -9.25879 -4.72852 -13.5273c-6.17578 -16.1211 -13.3662 -29.1602 -21.3662 -38.7451
c-13.0723 -15.667 -29.6592 -23.8828 -46.917 -23.8828c-7.56738 0 -15.2617 1.57422 -22.8457 4.80078c-19.9961 8.50391 -37.0596 27.9678 -49.333 56.291c-11.0596 25.5176 -18.3936 58.0703 -20.6494 91.6709c-9.34082 139.021 25.6016 250.045 81.2773 258.25
c17.3018 2.5498 33.9053 -2.27832 47.9805 -13.9814c46.4736 -38.6348 52.7939 -147.236 53.5918 -168.613zM466.261 78.8086c10.8438 34.0273 16.0098 81.9541 14.1807 131.477c-2.34473 63.0381 -19.0703 113.064 -30.502 123.231
c-12.834 -14.7959 -38.2959 -77.5234 -30.5684 -192.528c1.77441 -26.4385 7.51758 -52.5 15.7559 -71.5098c5.98145 -13.8096 12.0078 -20.7285 15.4785 -23.3506c0.254883 0.265625 0.538086 0.586914 0.842773 0.953125c2.07324 2.4834 6.29785 8.59863 11.248 21.5049
v0.0107422c1.25293 3.25977 2.43945 6.6748 3.56445 10.2119z" />
    <glyph glyph-name="ampersand" unicode="&#x26;" horiz-adv-x="373" 
d="M322.609 305.153l-4.65137 -30.1309c-10.8877 -70.71 -29.4482 -136.043 -54.2119 -191.298c9.95605 -13.3994 20.251 -25.041 30.8008 -34.7373l22.4463 -20.6445l-41.2783 -44.8877l-22.4414 20.6396c-7.16797 6.59668 -14.0371 13.6484 -20.623 21.1104
c-28.2734 -44.0508 -58.9746 -68.2383 -91.5 -72.0195c-2.88867 -0.337891 -5.74902 -0.503906 -8.58203 -0.503906c-21.0439 0 -40.292 9.20215 -54.8994 26.4482c-16.0605 18.96 -26.3604 48.7188 -27.5469 79.5859c-1.16992 30.3516 5.94238 61.9844 21.7529 96.7158
c12.7451 27.9795 27.0645 52.3223 40.9131 75.8555c3.08789 5.23926 6.16992 10.4785 9.23047 15.7559c-1.65723 5.61035 -3.23145 11.1094 -4.72266 16.4922c-19.7969 71.376 -41.0791 180.277 -30.0469 293.758c3.94727 40.625 16.1494 113.642 53.5254 146.178
c15.7998 13.7432 35.0645 19.0654 54.2627 14.9746c23.5225 -5.01172 43.7295 -23.373 56.8955 -51.7012c22.707 -48.8682 21.8086 -116.479 19.2529 -152.425c-6.60254 -92.7969 -34.5537 -185.022 -83.1113 -274.305c10.8877 -33.2568 23.1006 -63.6475 36.3555 -90.5957
c14.5195 40.7852 25.7959 86.3379 33.2686 134.879l4.63965 30.1357zM147.948 551.395c-7.84473 -80.6895 2.29102 -159.5 15.8174 -221.778c26.46 62.3115 42.0879 125.615 46.5947 189.024c3.63672 51.1855 -1.36328 95.8018 -13.7256 122.412
c-6.27539 13.499 -12.8506 17.4355 -14.2588 17.7461c0.171875 -0.0664062 -0.538086 -0.4375 -1.55859 -1.31934c-12.2686 -10.6826 -27.1865 -47.626 -32.8691 -106.085zM193.343 78.5957c0.0498047 0.0947266 0.0986328 0.189453 0.142578 0.27832
c-17.834 29.1377 -32.791 60.7314 -45.2363 91.9707c-7.35059 -13.083 -14.3467 -26.3662 -20.8662 -40.6797c-11.9355 -26.2275 -17.124 -48.1865 -16.3145 -69.0977c0.753906 -19.542 7.14062 -35.4414 13.1445 -42.5264
c4.22949 -4.9834 7.21191 -5.12793 9.90625 -4.79004c6.07617 0.709961 28.2842 7.46191 59.2236 64.8447z" />
    <glyph glyph-name="quotesingle" unicode="'" horiz-adv-x="172" 
d="M122.309 828.338l-3.43066 -30.3018c-6.14258 -54.3398 -8.7207 -110.237 -7.66699 -166.141l0.576172 -30.4854l-60.9697 -1.14746l-0.576172 30.4854c-1.10352 58.5586 1.60156 117.15 8.04297 174.14l3.42578 30.2969z" />
    <glyph glyph-name="quotesingle" unicode="&#x2019;" horiz-adv-x="172" 
d="M122.309 828.338l-3.43066 -30.3018c-6.14258 -54.3398 -8.7207 -110.237 -7.66699 -166.141l0.576172 -30.4854l-60.9697 -1.14746l-0.576172 30.4854c-1.10352 58.5586 1.60156 117.15 8.04297 174.14l3.42578 30.2969z" />
    <glyph glyph-name="quotesingle" unicode="&#x2018;" horiz-adv-x="172" 
d="M122.309 828.338l-3.43066 -30.3018c-6.14258 -54.3398 -8.7207 -110.237 -7.66699 -166.141l0.576172 -30.4854l-60.9697 -1.14746l-0.576172 30.4854c-1.10352 58.5586 1.60156 117.15 8.04297 174.14l3.42578 30.2969z" />
    <glyph glyph-name="parenleft" unicode="(" horiz-adv-x="287" 
d="M214.421 -144.399l22.1426 -20.96l-41.9219 -44.2891l-22.1475 20.9609c-40.4805 38.3125 -65.8711 102.16 -80.0469 148.972c-16.8311 55.5703 -28.9492 122.577 -36.0342 199.164c-18.6826 202.059 4.03516 414.927 60.7646 569.414
c14.5469 39.6104 27.8516 65.5498 43.1357 84.1211l19.3809 23.5439l47.083 -38.7559l-19.375 -23.5391c-13.9033 -16.8975 -25.4785 -45.9795 -32.9736 -66.3916c-53.7578 -146.394 -75.1787 -349.306 -57.2891 -542.776
c6.70801 -72.5068 18.0391 -135.462 33.6777 -187.107c17.0137 -56.1807 39.5986 -99.6328 63.6035 -122.356z" />
    <glyph glyph-name="parenright" unicode=")" horiz-adv-x="287" 
d="M169.385 728.861c56.7344 -154.493 79.4512 -367.356 60.7637 -569.409c-7.0791 -76.5869 -19.2031 -143.594 -36.0283 -199.164c-14.1758 -46.8115 -39.5713 -110.659 -80.0518 -148.972l-22.1475 -20.9609l-41.9219 44.2891l22.1475 20.9551
c24.0049 22.7178 46.5898 66.1699 63.6035 122.355c15.6387 51.6514 26.9697 114.606 33.6719 187.113c17.8955 193.46 -3.52539 396.372 -57.2881 542.776c-7.48926 20.4014 -19.0586 49.4834 -32.9736 66.3867l-19.375 23.5391l47.083 38.7559l19.3809 -23.5439
c15.2949 -18.5771 28.5947 -44.5166 43.1357 -84.1211z" />
    <glyph glyph-name="asterisk" unicode="*" horiz-adv-x="345" 
d="M294.59 547.193l-30.249 -3.8623c-17.7617 -2.27832 -35.1689 -3.96387 -52.4873 -5.2666c11.4922 -34.8809 23.3613 -69.54 35.8516 -104.648l10.2227 -28.7275l-57.4551 -20.4453l-10.2168 28.7275c-6.75195 18.9766 -13.2822 37.8193 -19.7188 56.6406
c-6.68066 -17.6289 -13.4551 -35.2637 -20.4404 -53.0146l-11.165 -28.3672l-56.7461 22.3301l11.1709 28.373c12.7285 32.3418 24.875 64.3457 36.6777 96.5488c-16.3262 0.199219 -32.7744 0.692383 -49.5996 1.71777l-30.4355 1.85156l3.69727 60.8643l30.4355 -1.8457
c15.2676 -0.931641 30.2412 -1.48633 45.0654 -1.69141c-11.2539 36.2783 -22.2637 73.2715 -33.2402 111.684l-8.38184 29.3213l58.6357 16.7529l8.37695 -29.3154c6.29785 -22.042 12.6182 -43.541 18.9766 -64.7734c6.68555 20.0625 13.3379 40.375 19.9844 61.2139
l9.26367 29.0439l58.0986 -18.5332l-9.26953 -29.0488c-11.3145 -35.4629 -22.6348 -69.6123 -34.1377 -103.102c12.9004 1.11426 25.8838 2.47754 39.0723 4.17383l30.2471 3.88086z" />
    <glyph glyph-name="plus" unicode="+" horiz-adv-x="309" 
d="M228.298 293.506l30.2861 -3.57129l-7.12891 -60.5654l-30.2803 3.57031c-12.2734 1.44727 -24.1865 2.41211 -35.9668 2.97168c0.188477 -54.0459 -0.132812 -108.225 -1.01953 -163.961l-0.488281 -30.4854l-60.9756 0.969727l0.482422 30.4902
c0.875977 55.0381 1.19727 108.552 1.01953 161.916c-11.4531 -0.953125 -23.0674 -2.2998 -35.0479 -4.09082l-30.1523 -4.50684l-9.02539 60.3047l30.1523 4.5127c14.8076 2.21777 29.2881 3.78711 43.6406 4.84082c-0.571289 52.1055 -1.625 104.544 -3.22754 158.606
l-0.90332 30.4795l60.9531 1.80176l0.90332 -30.4736c1.60742 -54.334 2.66602 -107.033 3.24219 -159.399c14.3477 -0.587891 28.7949 -1.6748 43.5361 -3.41016z" />
    <glyph glyph-name="comma" unicode="," horiz-adv-x="218" 
d="M168.475 39.7832l-59.0664 -254.838l-59.4082 13.7695l59.0664 254.838z" />
    <glyph glyph-name="hyphen" unicode="-" horiz-adv-x="301" 
d="M220.195 378.408l30.4619 -1.16992l-2.33398 -60.9365l-30.4688 1.16992c-45.1924 1.74609 -86.4434 1.25293 -133.792 -1.57422l-30.4355 -1.8125l-3.62598 60.8701l30.4355 1.8125c49.4062 2.94336 92.5146 3.44238 139.759 1.64062z" />
    <glyph glyph-name="period" unicode="." horiz-adv-x="170" 
d="M59.0361 5.43066l60.6104 -6.70801l-3.34863 -30.3076c-2.02344 -18.2939 -3.4209 -37.0703 -4.16406 -55.8086l-1.20312 -30.4629l-60.9316 2.41113l1.20312 30.4688c0.792969 20.1572 2.30664 40.375 4.48535 60.0996z" />
    <glyph glyph-name="slash" unicode="/" horiz-adv-x="271" 
d="M160.658 728.046l60.4014 -8.39844l-4.19629 -30.1963c-8.3877 -60.3662 -15.9053 -115.466 -23.1514 -168.547c-22.9902 -168.508 -42.8477 -314.036 -78.7383 -542.211l-4.73438 -30.125l-60.2383 9.47461l4.73438 30.125
c35.79 227.564 55.6094 372.805 78.5547 540.979c7.25098 53.1309 14.7734 108.28 23.1719 168.696z" />
    <glyph glyph-name="zero" unicode="0" horiz-adv-x="392" 
d="M250.816 674.919c79.7471 -66.3027 89.626 -272.048 90.4854 -295.293c3.79785 -102.104 -7.32324 -202.38 -30.502 -275.108c-2.64453 -8.30469 -5.44434 -16.3154 -8.31641 -23.8047c-10.4834 -27.3477 -22.4248 -49.1621 -35.4912 -64.834
c-19.0703 -22.8516 -43.0635 -34.876 -67.8057 -34.876c-10.5605 0 -21.2549 2.18945 -31.7656 6.65723c-30.9678 13.1719 -57.9932 44.7217 -78.1553 91.2451c-19.4639 44.9268 -32.3975 102.576 -36.4111 162.321c-10.1895 151.671 8.8252 255.067 26.5762 315.101
c24.6699 83.4277 61.0977 132.745 102.576 138.865c24.6865 3.59766 48.4805 -3.37598 68.8096 -20.2734zM252.701 123.028c21.127 66.2861 31.2061 158.99 27.6641 254.343c-3.59766 96.8877 -28.8438 217.664 -68.5312 250.666
c-6.90723 5.7373 -12.5947 7.12891 -17.1348 7.12891c-1.36328 0 -2.62695 -0.12793 -3.79102 -0.299805c-5.26074 -1.05371 -31.4434 -21.7764 -53.5576 -97.7529c-22.6631 -77.8672 -31.0615 -181.496 -23.6494 -291.794
c3.55957 -52.9814 14.7578 -103.469 31.5225 -142.17c19.0762 -44.0117 38.5684 -56.1807 46.0693 -59.3682c4.68457 -2.00684 14.4414 -6.14258 28.877 11.165c8.63672 10.3555 17.4121 26.8203 25.3789 47.5986v0.0107422c2.45605 6.3916 4.8623 13.2822 7.15234 20.4727z
" />
    <glyph glyph-name="one" unicode="1" horiz-adv-x="267" 
d="M216.822 5.67871l0.516602 -30.4854l-60.9756 -1.00879l-0.504883 30.4854c-3.4375 207.74 -4.0752 401.788 -1.95703 605.498c-13.1387 -10.6885 -26.5654 -22.4082 -39.4268 -35.0254l-21.7705 -21.3486l-42.7031 43.5352l21.7646 21.3545
c33.002 32.3643 68.4648 58.7246 95.6787 78.0664l48.9346 34.7871l-0.78125 -60.0332c-2.93848 -226.124 -2.55078 -437.689 1.22461 -665.825z" />
    <glyph glyph-name="two" unicode="2" horiz-adv-x="336" 
d="M276.773 -21.125l-30.3789 -2.63965c-32.1816 -2.7998 -96.5889 -3.24902 -134.719 -3.24902c-16.9033 0 -28.6396 0.0888672 -30.1201 0.0996094l-24.2871 0.194336l-5.23926 23.7109c-5.27246 23.8545 0.731445 48.0859 6.55273 66.5303
c20.9443 66.3311 46.7842 125.932 71.7695 183.57c19.165 44.2109 38.9844 89.9297 56.1426 137.827c15.7715 44.0391 26.377 81.9912 33.3838 119.456c6.79102 36.2783 6.65234 70.8438 -0.366211 94.8145c-8.97559 30.6455 -29.293 50.209 -49.4834 47.5371
c-26.7148 -3.52539 -56.3574 -47.0488 -58.3145 -134.263l-0.6875 -30.4854l-60.9648 1.36914l0.6875 30.4795c2.96582 132.124 59.4395 186.514 111.296 193.354c50.6865 6.6748 98.3623 -30.6846 115.986 -90.8564c13.1777 -45.0156 6.77441 -96.4834 1.78516 -123.165
c-7.61719 -40.7129 -19.0264 -81.6475 -35.918 -128.803c-17.8232 -49.7607 -38.0469 -96.4111 -57.5996 -141.521c-24.376 -56.2188 -49.5723 -114.351 -69.5684 -177.677c-0.720703 -2.29492 -2.01758 -6.3916 -3.19238 -11.1924
c37.3984 0.0224609 98.3682 0.47168 127.572 3.0166l30.374 2.64453z" />
    <glyph glyph-name="three" unicode="3" horiz-adv-x="333" 
d="M266.566 86.2129c-19.248 -65.2275 -55.6367 -107.246 -97.3418 -112.401c-2.92188 -0.366211 -5.83789 -0.543945 -8.73145 -0.543945c-40.292 -0.00585938 -77.9287 34.5537 -99.749 92.502l-10.7441 28.5332l57.0674 21.4873l10.7441 -28.5283
c13.6436 -36.2227 32.8027 -54.3174 43.9238 -52.9365c10.4053 1.29199 32.1865 21.2051 46.334 69.1475c10.6943 36.2168 14.0098 79.0977 8.88184 114.716c-2.66113 18.4824 -7.81641 36.9043 -15.3174 54.7441c-19.1201 45.4756 -43.7236 64.6016 -59.6729 63.2432
l-10.4004 59.834c24.2148 6.53027 49.5225 33.999 69.4297 75.3555c9.18066 19.0811 24.043 57.3662 20.3838 99.3818c-3.54785 40.7793 -22.6406 61.125 -30.6846 67.9775c-10.167 8.65918 -20.2402 11.5693 -30.7676 8.91406
c-16.1377 -4.08594 -31.6992 -20.9336 -40.6191 -43.9678l-11.0039 -28.4336l-56.8672 22.0146l11.0098 28.4336c16.1709 41.7773 47.0273 72.085 82.5293 81.0713c29.792 7.53906 60.0771 -0.138672 85.2793 -21.6152c29.0986 -24.7969 48.0088 -64.5625 51.8896 -109.101
c4.92285 -56.5244 -14.2969 -106.412 -26.1934 -131.126c-14.2861 -29.6758 -31.2998 -54.1738 -50.1211 -72.5566c20.3232 -17.2354 38.2461 -42.9863 52.0332 -75.7939c9.5127 -22.6182 16.0596 -46.0625 19.458 -69.6787
c6.41406 -44.5273 2.49414 -95.8018 -10.75 -140.673z" />
    <glyph glyph-name="four" unicode="4" horiz-adv-x="352" 
d="M237.899 167.334c-12.1797 -0.432617 -26.7627 -1.08691 -41.8027 -1.75195c-113.298 -5.05566 -123.493 -4.49609 -136.277 7.57812c-6.13672 5.79883 -9.71289 13.9258 -9.81836 22.3135c-0.199219 16.6426 76.665 231.141 77.4414 233.292
c82.79 229.184 105.696 252.373 114.322 261.099c8.20996 8.31543 17.4736 12.5283 27.541 12.5283h30.8896l-0.399414 -30.8838c-2.93848 -226.212 -2.55078 -437.783 1.22461 -665.825l0.504883 -30.4854l-60.9756 -1.00879l-0.504883 30.4854
c-0.90918 55.0273 -1.62402 109.112 -2.14551 162.659zM120.763 223.764c22.4912 0.493164 51.7676 1.80078 72.6064 2.7373c16.2988 0.726562 31.3838 1.40332 44.0234 1.83594c-0.743164 106.645 -0.693359 211.843 0.126953 319.137
c-41.1289 -102.011 -94.0049 -253.493 -116.757 -323.71z" />
    <glyph glyph-name="five" unicode="5" horiz-adv-x="340" 
d="M232.422 16.5225c-19.9404 -23.0117 -44.8398 -34.9268 -69.5146 -34.9375c-16.6094 0 -33.124 5.39453 -47.9697 16.4316c-31.9932 23.7773 -55.6592 74.791 -61.7686 133.122l-3.1709 30.3242l60.6484 6.35352l3.17676 -30.3301
c4.88379 -46.6836 22.8564 -79.6465 37.4922 -90.5234c4.03027 -2.99902 16.293 -12.124 35.0195 9.49121c18.2725 21.083 32.5312 60.4326 38.1475 105.248c3.80273 30.3467 13.793 134.325 -17.3848 197.917c-27.0811 55.2266 -96.0283 40.2861 -98.9551 39.6318
l-41.3115 -9.37402l4.05762 42.1162c0.714844 7.14551 17.4902 174.057 27.4746 244.163v28.3447h4.09082l0.587891 4.04688l28.0068 -4.04688h138.294v-60.9814h-113.818c-6.76855 -53.1973 -15.3613 -134.225 -20.2012 -180.947
c43.335 -1.04785 98.0244 -17.9619 126.53 -76.1104c37.5586 -76.6143 28.6943 -188.005 23.1396 -232.338c-7.16797 -57.1562 -26.3271 -107.311 -52.5713 -137.602z" />
    <glyph glyph-name="six" unicode="6" horiz-adv-x="317" 
d="M185.397 -19.5732c-6.09766 -1.67383 -12.335 -2.49805 -18.5938 -2.50391c-13.8652 0 -27.8184 4.06348 -40.5908 11.9961c-26.1611 16.249 -47.582 47.6602 -60.3213 88.4512c-14.9902 48.0195 -19.3916 111.867 -13.1328 190.062l-1.31348 0.80957l1.59082 2.59473
c0.648438 7.72266 1.39648 15.5723 2.24512 23.5664c14.6299 137.451 49.7441 264.885 98.873 358.818c8.4375 16.1377 19.9688 36.6328 34.3496 52.0166l20.8223 22.2744l44.5498 -41.6445l-20.8223 -22.2744c-9.47461 -10.1396 -18.7275 -26.9092 -24.8643 -38.6338
c-38.7344 -74.0703 -68.1934 -171.435 -84.6855 -278.64c3.55859 1.35254 7.17871 2.42773 10.8545 3.2373c22.0859 4.82812 44.6152 -0.305664 66.9678 -15.2686c45.3252 -30.3408 59.3672 -105.342 63.2979 -136.182
c7.74414 -60.7598 -1.10938 -126.664 -22.5693 -167.898c-17.6846 -33.9775 -40.5693 -46.3682 -56.6572 -50.7812zM124.1 96.5537c8.13281 -26.0498 20.9502 -46.5449 34.2832 -54.8164c6.12598 -3.80273 9.70703 -2.83301 10.8877 -2.49512
c5.99805 1.64648 12.9883 9.16406 18.6875 20.124c15.6055 29.9912 22.2578 84.2861 16.1709 132.034c-6.27539 49.2559 -23.2285 84.1816 -36.7275 93.2178c-8.02734 5.36621 -14.7578 7.50586 -20.0078 6.36426c-4.77832 -1.04199 -14.7686 -6.02539 -28.0234 -27.6348
l-6.6582 -10.8486c-4.44043 -65.1172 -0.625977 -117.461 11.3877 -155.945z" />
    <glyph glyph-name="seven" unicode="7" horiz-adv-x="325" 
d="M256.516 551.754c-11.9521 -62.8936 -28.6445 -148.251 -44.7715 -230.797c-24.9082 -127.384 -50.6641 -259.098 -61.3916 -320.201l-5.27246 -30.0303l-60.0664 10.5391l5.27246 30.0361c10.8213 61.6855 36.6387 193.698 61.6025 321.354
c21.6758 110.853 47.5537 243.192 58.0205 302.078c-15.8057 0.132812 -34.3389 -0.0722656 -53.4648 -0.277344c-25.0352 -0.265625 -50.9248 -0.553711 -75.9551 -0.193359l-30.4902 0.4375l0.875977 60.9697l30.4902 -0.4375
c24.2598 -0.34375 49.7559 -0.0605469 74.4092 0.205078c38.0352 0.416016 70.8877 0.776367 91.9814 -1.21973l13.46 -1.26953l8.15527 -10.8711c9.50195 -12.7061 9.50195 -12.7061 -12.8555 -130.322z" />
    <glyph glyph-name="eight" unicode="8" horiz-adv-x="317" 
d="M184.6 -17.9648c-7.81641 -2.77148 -15.7793 -4.14062 -23.6738 -4.14062c-13.7539 0 -27.3135 4.16309 -39.6152 12.3564c-46.1348 30.7178 -66.9238 109.815 -70.7051 168.213c-3.37012 52.1162 6.78027 163.18 42.959 214.798
c-0.693359 1.1416 -1.38672 2.28906 -2.08008 3.45312c-15.1562 25.5293 -40.5352 78.4941 -40.2354 146.35c0.132812 29.8975 5.35547 60.7812 15.0957 89.3145c16.7529 49.0791 45.7686 82.3633 79.6074 91.3105c25.418 6.70801 50.4482 1.03125 70.4561 -16.0049
c16.7861 -14.3027 29.4756 -36.2949 36.6992 -63.6201c26.9316 -101.866 7.33496 -221.39 -6.97363 -308.659c-3.09375 -18.8428 -6.00977 -36.6377 -8.07227 -51.9824l-1.36914 -10.1787c5.13379 -13.8428 9.7793 -28.3955 13.9375 -43.6074
c5.21094 -19.0811 12.1074 -48.1299 11.8135 -79.8896c-0.199219 -21.6035 -3.74121 -44.0225 -10.2383 -64.8389c-13.1387 -42.1045 -37.7803 -72.3125 -67.6055 -82.873zM124.06 592.673c-5.32227 -15.583 -11.6904 -40.3584 -11.8232 -69.8848
c-0.238281 -53.1641 19.7578 -94.8418 31.6934 -114.954c9.00293 -15.1729 18.9258 -28.4111 29.4316 -42.415c5.17773 -6.90234 10.4385 -13.9209 15.6719 -21.2881c12.8613 79.6357 26.9531 181.768 5.12207 264.358c-3.97461 15.0234 -10.1113 26.665 -17.2852 32.7744
c-3.34863 2.85547 -6.52539 4.20215 -10.2227 4.20215c-1.58594 0 -3.26562 -0.244141 -5.09473 -0.732422c-10.4443 -2.76074 -26.627 -20.2344 -37.4932 -52.0605zM155.117 41.0039c3.84766 -2.5498 6.43652 -2.42773 9.12012 -1.49609
c8.38184 2.97168 21.2041 16.1602 29.7578 43.5625c4.74023 15.1953 7.3291 31.5273 7.47363 47.2383c0.166016 18.3994 -2.90527 38.501 -9.66309 63.2598c-4.55176 16.6533 -9.85156 32.5801 -15.7666 47.4258l-2.47266 0.337891l0.582031 4.32422
c-6.23145 15.0732 -13.1006 28.9658 -20.4463 41.2725c-6.45801 10.8271 -13.3818 20.6729 -20.6494 30.5293c-13.6318 -36.6992 -24.9189 -103.601 -21.5869 -155.063c4.05762 -62.6719 25.5176 -109.316 43.6514 -121.391z" />
    <glyph glyph-name="nine" unicode="9" horiz-adv-x="342" 
d="M269.438 129.065c-11.0762 -54.9551 -33.5918 -124.772 -77.9141 -145.284c-8.63184 -3.99121 -17.6572 -5.95898 -26.793 -5.95898c-18.0889 0 -36.6045 7.71094 -53.3525 22.6738c-15.6553 13.9814 -30.041 33.6455 -46.6553 63.7705l-14.7246 26.6982l53.4033 29.4482
l14.7246 -26.6934c12.7783 -23.1836 23.8604 -38.8008 33.8721 -47.7373c4.87305 -4.35156 11.0654 -8.16016 13.9209 -6.84082c10.2783 4.75684 30.4072 35.835 43.7402 101.982c10.5771 52.4824 14.6133 110.598 16.9473 155.357
c1.65723 31.7988 2.78809 62.8496 3.44824 93.4229c-10.2617 -25.6338 -23.1953 -45.5361 -40.0703 -57.7822c-12.2686 -8.90918 -26.0781 -13.4492 -40.5527 -13.4492c-4.94531 0 -9.96777 0.532227 -15.0352 1.59668c-47.0605 9.92285 -68.2207 72.4004 -73.3047 107.753
c-4.77344 33.1514 -4.80664 69.7734 -0.0888672 103.125c23.6104 167.094 105.397 188.061 129.9 190.5c8.85352 0.892578 17.5127 0.399414 25.7559 -1.23047l-0.0830078 0.875977l60.7148 5.67676l2.83887 -30.3633c12.4404 -133.017 14.7803 -261.166 7.37402 -403.302
c-2.44434 -46.8506 -6.70703 -107.854 -18.0664 -164.239zM208.775 605.533c2.0459 18.9268 3.86816 35.7773 5.79785 50.1797c-3.14355 3.07715 -8.33789 5.38379 -14.8076 5.38379c-0.915039 0 -1.85156 -0.0439453 -2.81055 -0.138672
c-26.2109 -2.61621 -61.7354 -40.4189 -75.5723 -138.354c-3.86914 -27.3916 -3.84668 -58.708 0.0673828 -85.9053c4.51855 -31.4385 19.3203 -54.9551 25.5518 -56.7734c2.98242 -0.625977 4.66211 -0.271484 7.16211 1.54688
c32.9912 23.9375 47.0557 154.127 54.6113 224.062z" />
    <glyph glyph-name="colon" unicode=":" horiz-adv-x="183" 
d="M72.2607 478.346l60.582 -6.93945l-3.46484 -30.2969c-2.80469 -24.5029 -4.82227 -49.6553 -5.99219 -74.7627l-1.41895 -30.4521l-60.915 2.84375l1.41895 30.457c1.24219 26.4717 3.36523 52.998 6.3252 78.8594zM65.3926 5.82617l3.30859 30.3076l60.6211 -6.61328
l-3.30957 -30.3135c-3.16504 -28.9717 -6.92383 -58.0098 -11.1758 -86.3047l-4.5293 -30.1523l-60.3047 9.06934l4.5293 30.1465c4.12988 27.4863 7.7832 55.6982 10.8604 83.8604z" />
    <glyph glyph-name="semicolon" unicode=";" horiz-adv-x="223" 
d="M172.696 472.793l-17.7979 -124.33l-60.3652 8.64062l17.7979 124.33zM83.7441 38.1455l3.71387 30.2646l60.5264 -7.40625l-3.70312 -30.2637c-8.64258 -70.6162 -18.3828 -141.653 -28.9551 -211.128l-4.58984 -30.1465l-60.2881 9.16895l4.58496 30.1465
c10.4834 68.8975 20.1406 139.336 28.7109 209.364z" />
    <glyph glyph-name="less" unicode="&#x3c;" horiz-adv-x="364" 
d="M212.531 298.24c24.4424 -12.9775 49.7188 -26.4004 73.6064 -39.6719l26.6484 -14.8125l-29.6201 -53.3027l-26.6543 14.8125c-23.3779 12.9941 -48.3916 26.2773 -72.5791 39.1221c-24.459 12.9834 -49.75 26.4102 -73.6494 39.6934
c-12.1523 6.75781 -27.2754 15.1621 -40.8301 29.875l-19.4531 21.127l19.9189 20.6836c58.7861 61.042 120.149 117.527 182.395 167.903l23.6992 19.1816l38.3623 -47.4043l-23.6992 -19.1816c-51.7617 -41.8936 -102.931 -88.1836 -152.475 -137.933
c0.56543 -0.316406 1.13086 -0.626953 1.70703 -0.948242c23.3887 -13 48.4189 -26.2939 72.623 -39.1445z" />
    <glyph glyph-name="equal" unicode="=" horiz-adv-x="369" 
d="M87.2314 361.711l-30.29 -3.47754l-6.94043 60.5879l30.291 3.4707c73.5654 8.43164 137.757 9.87891 208.123 4.69043l30.4072 -2.23926l-4.48535 -60.8203l-30.4072 2.23926c-66.4199 4.89551 -127.074 3.52051 -196.698 -4.45117zM80.292 336.935
c73.5654 8.43164 137.758 9.86621 208.124 4.68848l30.4072 -2.23926l-4.48535 -60.8203l-30.4072 2.23926c-66.4199 4.89551 -127.074 3.52051 -196.698 -4.45117l-30.291 -3.47559l-6.94043 60.5879z" />
    <glyph glyph-name="greater" unicode="&#x3e;" horiz-adv-x="364" 
d="M294.457 355.762l19.9189 -20.6826l-19.4531 -21.127c-13.5547 -14.7188 -28.6777 -23.1172 -40.8301 -29.875c-23.8877 -13.2715 -49.1729 -26.6982 -73.6211 -39.6816c-24.1982 -12.8506 -49.2168 -26.1338 -72.6006 -39.1338l-26.6543 -14.8125l-29.626 53.3027
l26.6543 14.8125c23.8877 13.2715 49.1729 26.6982 73.6211 39.6816c24.1982 12.8506 49.2168 26.1338 72.6006 39.1338c0.571289 0.321289 1.14258 0.631836 1.70801 0.948242c-49.5391 49.749 -100.713 96.0391 -152.475 137.933l-23.6992 19.1816l38.3623 47.4043
l23.6992 -19.1816c62.2451 -50.376 123.608 -106.861 182.395 -167.903z" />
    <glyph glyph-name="question" unicode="?" horiz-adv-x="301" 
d="M235.062 685.204c13.3213 -26.71 15.498 -61.8711 15.6035 -80.459c0.171875 -28.373 -3.60938 -55.0439 -7.32324 -77.3965c-6.82422 -41.0625 -15.8047 -80.4893 -24.4922 -118.625c-4.40137 -19.3203 -8.95312 -39.3057 -13.1221 -59.0908
c-10.2168 -48.4414 -21.9033 -112.677 -21.6592 -179.928l0.111328 -30.4902l-60.9814 -0.22168l-0.111328 30.4854c-0.265625 72.9893 12.1357 141.344 22.9678 192.74c4.27441 20.2676 8.88086 40.4971 13.3379 60.0557c8.4873 37.2646 17.2686 75.7988 23.7939 115.082
c3.29297 19.8076 6.63574 43.2637 6.49707 67.041c-0.12793 21.9424 -3.64844 42.4766 -9.19238 53.5859c-3.65332 7.3291 -6.58594 7.7002 -7.68945 7.83887c-13.6045 1.87891 -45.6533 -32.7969 -57.6445 -104.965l-4.99512 -30.0801l-60.1611 9.99512l4.99512 30.0801
c16.4092 98.7617 68.0322 162.798 125.415 155.475c23.4893 -2.95508 42.8975 -17.5625 54.6504 -41.123zM186.214 -1.125c1.4082 -15.5225 2.14648 -31.3818 2.19043 -47.1318l0.0996094 -30.4902l-60.9814 -0.194336l-0.0996094 30.4902
c-0.0498047 13.9922 -0.704102 28.0674 -1.94629 41.8379l-2.74414 30.3682l60.7373 5.48828z" />
    <glyph glyph-name="at" unicode="@" horiz-adv-x="473" 
d="M415.013 563.114c8.73145 -48.0146 10.2734 -104.992 4.46387 -164.775c-5.0166 -51.4795 -14.4072 -93.5674 -27.9229 -125.101c-9.02539 -21.0605 -25.2188 -47.3877 -51.1084 -53.2305c-14.5137 -3.28223 -28.9219 0.576172 -40.5752 10.8486
c-6.06445 5.33887 -11.3203 12.4404 -15.8223 21.3936c-3.27051 -8.48145 -6.7627 -16.625 -10.4824 -24.3359c-7.16211 -14.8184 -17.2354 -33.3232 -31.7324 -44.9268c-22.7461 -18.2002 -52.3438 -15.1182 -70.3779 7.36133
c-13.166 16.4043 -20.8936 43.2861 -23.6211 82.1865c-3.48145 49.6055 1.01465 125.737 19.1094 175.676c7.47852 20.6338 27.3086 75.4502 71.043 72.584c30.3906 -1.99023 53.8242 -31.6768 69.8066 -88.3447l16.127 -1.07031
c-0.310547 -39.4326 -0.626953 -80.2178 5.21582 -117.117c1.375 -8.67578 2.94434 -15.6553 4.48535 -21.1494c0.615234 1.28613 1.24707 2.66113 1.87891 4.1416c11.0371 25.7617 18.876 61.7568 23.2773 106.988c5.2832 54.251 3.98633 105.408 -3.75293 147.951
c-15.2061 83.583 -55.0762 129.347 -85.6885 136.504c-30.1963 7.0625 -56.2295 -14.5078 -72.7441 -33.8389c-28.0068 -32.8027 -51.5732 -85.7842 -66.3643 -149.188c-11.4863 -49.2617 -18.0947 -106.8 -19.1035 -166.395
c-0.915039 -54.373 2.76074 -104.389 10.9268 -148.649c19.1924 -104.022 62.5 -163.501 94.6201 -174.744c33.2676 -11.6582 73.2324 25.3184 99.3877 91.998l11.1318 28.3838l56.7676 -22.2695l-11.1318 -28.3896c-33.0742 -84.3203 -86.8096 -133.066 -142.951 -133.072
c-11.0713 0 -22.2363 1.89551 -33.3574 5.78711c-61.7354 21.6094 -113.253 106.384 -134.441 221.239c-8.90332 48.2412 -12.9111 102.326 -11.9248 160.746c1.0752 63.8418 8.22656 125.815 20.6836 179.213c16.9697 72.7285 45.1592 134.857 79.375 174.938
c38.8896 45.5303 86.1113 64.5947 132.995 53.624c63.2314 -14.7744 113.74 -85.6514 131.808 -184.968zM218.644 254.439c15.1455 31.3496 27.8799 76.6074 37.4043 132.521l-1.96777 8.91992c-6.05957 27.4912 -13.4551 45.8467 -19.0762 56.1582
c-2.88281 -5.2002 -6.54199 -13.0117 -10.7383 -24.5977c-12.7119 -35.0693 -19.2754 -98.4229 -15.6113 -150.634c1.00293 -14.3135 2.74902 -25.0684 4.59473 -32.8018c1.59668 2.85547 3.39844 6.29785 5.39453 10.4336z" />
    <glyph glyph-name="A" unicode="A" horiz-adv-x="351" 
d="M270.788 71.2227c-37.7637 0.260742 -92.2871 0.111328 -141.277 -0.0332031c-17.8506 -0.0498047 -35.0029 -0.0996094 -50.5146 -0.12207c-0.0224609 -15.1396 -0.0166016 -29.5703 -0.00585938 -43.1025l0.00585938 -50.1152h-60.9814l-0.00585938 50.0713
c-0.0722656 106.767 -0.183594 268.101 16.126 404.482c13.8486 115.765 43.7793 269.664 143.423 269.664c132.717 0 147.99 -264.907 153.401 -584.937c0.654297 -38.873 1.27539 -75.5947 2.41211 -105.708l1.14746 -30.4688l-60.9365 -2.29492l-1.14746 30.4688
c-0.704102 18.6768 -1.20898 39.6982 -1.64648 62.0947zM129.339 132.182c48.4688 0.12793 102.328 0.283203 140.375 0.0341797c-1.85156 107.814 -4.68457 237.698 -19.7139 341.366c-21.9258 151.188 -57.9658 167.509 -72.4404 167.509
c-13.3828 0 -58.9082 -15.5664 -82.874 -215.917c-11.2373 -93.9717 -14.4639 -201.154 -15.3672 -293.114c15.3779 0.0224609 32.3525 0.0722656 50.0205 0.12207z" />
    <glyph glyph-name="A" unicode="&#xc5;" horiz-adv-x="351" 
d="M270.788 71.2227c-37.7637 0.260742 -92.2871 0.111328 -141.277 -0.0332031c-17.8506 -0.0498047 -35.0029 -0.0996094 -50.5146 -0.12207c-0.0224609 -15.1396 -0.0166016 -29.5703 -0.00585938 -43.1025l0.00585938 -50.1152h-60.9814l-0.00585938 50.0713
c-0.0722656 106.767 -0.183594 268.101 16.126 404.482c13.8486 115.765 43.7793 269.664 143.423 269.664c132.717 0 147.99 -264.907 153.401 -584.937c0.654297 -38.873 1.27539 -75.5947 2.41211 -105.708l1.14746 -30.4688l-60.9365 -2.29492l-1.14746 30.4688
c-0.704102 18.6768 -1.20898 39.6982 -1.64648 62.0947zM129.339 132.182c48.4688 0.12793 102.328 0.283203 140.375 0.0341797c-1.85156 107.814 -4.68457 237.698 -19.7139 341.366c-21.9258 151.188 -57.9658 167.509 -72.4404 167.509
c-13.3828 0 -58.9082 -15.5664 -82.874 -215.917c-11.2373 -93.9717 -14.4639 -201.154 -15.3672 -293.114c15.3779 0.0224609 32.3525 0.0722656 50.0205 0.12207z" />
    <glyph glyph-name="A" unicode="&#xc4;" horiz-adv-x="351" 
d="M270.788 71.2227c-37.7637 0.260742 -92.2871 0.111328 -141.277 -0.0332031c-17.8506 -0.0498047 -35.0029 -0.0996094 -50.5146 -0.12207c-0.0224609 -15.1396 -0.0166016 -29.5703 -0.00585938 -43.1025l0.00585938 -50.1152h-60.9814l-0.00585938 50.0713
c-0.0722656 106.767 -0.183594 268.101 16.126 404.482c13.8486 115.765 43.7793 269.664 143.423 269.664c132.717 0 147.99 -264.907 153.401 -584.937c0.654297 -38.873 1.27539 -75.5947 2.41211 -105.708l1.14746 -30.4688l-60.9365 -2.29492l-1.14746 30.4688
c-0.704102 18.6768 -1.20898 39.6982 -1.64648 62.0947zM129.339 132.182c48.4688 0.12793 102.328 0.283203 140.375 0.0341797c-1.85156 107.814 -4.68457 237.698 -19.7139 341.366c-21.9258 151.188 -57.9658 167.509 -72.4404 167.509
c-13.3828 0 -58.9082 -15.5664 -82.874 -215.917c-11.2373 -93.9717 -14.4639 -201.154 -15.3672 -293.114c15.3779 0.0224609 32.3525 0.0722656 50.0205 0.12207z" />
    <glyph glyph-name="A" unicode="&#xc3;" horiz-adv-x="351" 
d="M270.788 71.2227c-37.7637 0.260742 -92.2871 0.111328 -141.277 -0.0332031c-17.8506 -0.0498047 -35.0029 -0.0996094 -50.5146 -0.12207c-0.0224609 -15.1396 -0.0166016 -29.5703 -0.00585938 -43.1025l0.00585938 -50.1152h-60.9814l-0.00585938 50.0713
c-0.0722656 106.767 -0.183594 268.101 16.126 404.482c13.8486 115.765 43.7793 269.664 143.423 269.664c132.717 0 147.99 -264.907 153.401 -584.937c0.654297 -38.873 1.27539 -75.5947 2.41211 -105.708l1.14746 -30.4688l-60.9365 -2.29492l-1.14746 30.4688
c-0.704102 18.6768 -1.20898 39.6982 -1.64648 62.0947zM129.339 132.182c48.4688 0.12793 102.328 0.283203 140.375 0.0341797c-1.85156 107.814 -4.68457 237.698 -19.7139 341.366c-21.9258 151.188 -57.9658 167.509 -72.4404 167.509
c-13.3828 0 -58.9082 -15.5664 -82.874 -215.917c-11.2373 -93.9717 -14.4639 -201.154 -15.3672 -293.114c15.3779 0.0224609 32.3525 0.0722656 50.0205 0.12207z" />
    <glyph glyph-name="A" unicode="&#xc2;" horiz-adv-x="351" 
d="M270.788 71.2227c-37.7637 0.260742 -92.2871 0.111328 -141.277 -0.0332031c-17.8506 -0.0498047 -35.0029 -0.0996094 -50.5146 -0.12207c-0.0224609 -15.1396 -0.0166016 -29.5703 -0.00585938 -43.1025l0.00585938 -50.1152h-60.9814l-0.00585938 50.0713
c-0.0722656 106.767 -0.183594 268.101 16.126 404.482c13.8486 115.765 43.7793 269.664 143.423 269.664c132.717 0 147.99 -264.907 153.401 -584.937c0.654297 -38.873 1.27539 -75.5947 2.41211 -105.708l1.14746 -30.4688l-60.9365 -2.29492l-1.14746 30.4688
c-0.704102 18.6768 -1.20898 39.6982 -1.64648 62.0947zM129.339 132.182c48.4688 0.12793 102.328 0.283203 140.375 0.0341797c-1.85156 107.814 -4.68457 237.698 -19.7139 341.366c-21.9258 151.188 -57.9658 167.509 -72.4404 167.509
c-13.3828 0 -58.9082 -15.5664 -82.874 -215.917c-11.2373 -93.9717 -14.4639 -201.154 -15.3672 -293.114c15.3779 0.0224609 32.3525 0.0722656 50.0205 0.12207z" />
    <glyph glyph-name="A" unicode="&#xc1;" horiz-adv-x="351" 
d="M270.788 71.2227c-37.7637 0.260742 -92.2871 0.111328 -141.277 -0.0332031c-17.8506 -0.0498047 -35.0029 -0.0996094 -50.5146 -0.12207c-0.0224609 -15.1396 -0.0166016 -29.5703 -0.00585938 -43.1025l0.00585938 -50.1152h-60.9814l-0.00585938 50.0713
c-0.0722656 106.767 -0.183594 268.101 16.126 404.482c13.8486 115.765 43.7793 269.664 143.423 269.664c132.717 0 147.99 -264.907 153.401 -584.937c0.654297 -38.873 1.27539 -75.5947 2.41211 -105.708l1.14746 -30.4688l-60.9365 -2.29492l-1.14746 30.4688
c-0.704102 18.6768 -1.20898 39.6982 -1.64648 62.0947zM129.339 132.182c48.4688 0.12793 102.328 0.283203 140.375 0.0341797c-1.85156 107.814 -4.68457 237.698 -19.7139 341.366c-21.9258 151.188 -57.9658 167.509 -72.4404 167.509
c-13.3828 0 -58.9082 -15.5664 -82.874 -215.917c-11.2373 -93.9717 -14.4639 -201.154 -15.3672 -293.114c15.3779 0.0224609 32.3525 0.0722656 50.0205 0.12207z" />
    <glyph glyph-name="B" unicode="B" 
d="M261.545 -16.4854c-24.0547 -17.6846 -57.5928 -23.3613 -90.7217 -23.3721c-57.3447 0 -113.48 16.9971 -117.14 18.1221l-21.1328 6.51367l-0.371094 22.1084c-3.78613 225.131 -4.17969 433.952 -1.23047 657.165l0.249023 18.9932l17.1523 8.14941
c39.2051 18.6328 111.706 17.7734 165.159 -15.8994c44.1562 -27.8184 71.3818 -72.3398 80.9277 -132.312c4.19629 -26.3662 38.6455 -260.944 -42.7979 -375.023c-7.15723 -10.0234 -15.1514 -18.8047 -23.7002 -26.5156
c11.7578 -4.1416 22.6406 -9.71289 32.0488 -17.0693c22.6514 -17.7119 34.5645 -43.4297 34.4482 -74.3691c-0.105469 -27.7627 -11.4814 -50.7529 -32.8916 -66.4912zM91.6367 640.991c-2.05664 -167.97 -2.20605 -328.303 -0.404297 -494.276
c1.84082 0.283203 3.73633 0.571289 5.6709 0.848633c35.0693 7.19531 79.9795 20.6338 105.104 55.8311c54.7998 76.7588 45.0312 249.436 32.209 330.014c-6.75781 42.46 -24.165 71.9971 -53.2139 90.3027c-27.6914 17.4404 -64.707 21.1826 -89.3652 17.2803z
M92.7734 30.8057c50.6367 -12.0469 110.132 -14.7275 132.65 1.83691c4.14648 3.04883 7.98828 7.29492 8.02734 17.5898c0.0605469 15.4336 -5.85449 22.0469 -11.0098 26.0879c-22.1807 17.3633 -72.2354 17.0527 -114.406 11.2646
c-5.69336 -1.15332 -11.0762 -2.15137 -16.0547 -3.04395c0.244141 -17.8174 0.509766 -35.7344 0.792969 -53.7354z" />
    <glyph glyph-name="C" unicode="C" horiz-adv-x="292" 
d="M164.631 -23.1543c-68.9365 0 -115.468 67.0234 -138.38 199.347c-15.7275 90.873 -14.9297 201.271 2.18945 302.899c5.99805 35.6016 40.8125 213.201 137.429 213.234h0.0322266c54.3789 0 93.7227 -51.9395 105.265 -138.96l4.00781 -30.2246l-60.4492 -8.0166
l-4.00781 30.2305c-6.6084 49.833 -25.457 85.9951 -44.8154 85.9951h-0.00585938c-26.6211 -0.0107422 -62.75 -75.8877 -77.3193 -162.387c-16.0215 -95.0977 -16.8359 -198.012 -2.2334 -282.359c16.6309 -96.0508 46.0732 -150.208 80.3945 -148.728
c29.8252 1.31348 52.4492 39.416 59.0352 99.4326l3.32617 30.3076l60.6211 -6.65234l-3.32617 -30.3135c-15.2061 -138.505 -93.373 -152.658 -116.967 -153.7c-1.60742 -0.0722656 -3.20996 -0.105469 -4.7959 -0.105469z" />
    <glyph glyph-name="D" unicode="D" 
d="M32.5938 -17.832l-0.413086 24.7256c-3.78613 225.131 -4.17969 433.952 -1.23047 657.165l0.249023 18.9932l17.1523 8.14941c41.7109 19.8193 113.696 16.7646 161.943 -22.6738c126.309 -103.225 127.04 -460.674 29.498 -599.655
c-13.416 -19.1152 -26.3105 -34.582 -39.4219 -47.2773c-32.8359 -31.793 -68.9814 -47.4814 -109.739 -47.4814c-10.9102 0 -22.1533 1.12012 -33.751 3.35938zM91.6426 641.053c-2.5166 -205.312 -2.17188 -399.177 1.07129 -605.947
c24.0762 0.526367 44.4824 10.2061 65.2441 30.3018c10.3115 9.97852 20.75 22.5742 31.9258 38.4961c85.8887 122.378 74.6797 441.525 -18.1729 517.408c-23.5889 19.2812 -56.8184 23.3945 -80.0684 19.7412z" />
    <glyph glyph-name="E" unicode="E" horiz-adv-x="308" 
d="M225.765 137.304l3.33008 30.3057l60.6211 -6.65234l-3.32617 -30.3135c-15.2061 -138.505 -93.3779 -152.658 -116.972 -153.7c-1.60742 -0.0722656 -3.20996 -0.105469 -4.7959 -0.105469c-68.9365 0 -115.471 67.0234 -138.372 199.358
c-15.7275 90.873 -14.9346 201.271 2.18457 302.894c6.00391 35.6074 40.8242 213.234 137.44 213.234c22.5967 0 43.6299 -9.66797 60.8379 -27.9619c49.2002 -52.3271 68.21 -175.853 56.502 -367.145l0.615234 -31.6543l-30.4854 -0.592773
c-16.5088 -0.316406 -40.9902 -0.427734 -67.4727 -0.427734c-32.0654 0 -67.0684 0.161133 -94.4209 0.277344c-4.92871 0.0224609 -9.57422 0.0449219 -13.9482 0.0615234c1.63574 -27.2363 4.55176 -53.5693 8.83105 -78.2832
c16.6201 -96.0508 46.0518 -150.208 80.3896 -148.728c29.8311 1.31348 52.4551 39.416 59.041 99.4326zM165.863 631.349c-26.6045 0 -62.7285 -75.8818 -77.3086 -162.381c-7.89453 -46.8506 -12.0742 -95.5967 -12.5625 -143.09
c4.87891 -0.0224609 10.1182 -0.0449219 15.7227 -0.0722656c38.7949 -0.171875 93.0127 -0.416016 131.957 -0.183594c10.4502 216.461 -25.124 279.671 -41.3945 296.968c-7.38965 7.84961 -12.9053 8.75879 -16.4141 8.75879z" />
    <glyph glyph-name="E" unicode="&#xcb;" horiz-adv-x="308" 
d="M225.765 137.304l3.33008 30.3057l60.6211 -6.65234l-3.32617 -30.3135c-15.2061 -138.505 -93.3779 -152.658 -116.972 -153.7c-1.60742 -0.0722656 -3.20996 -0.105469 -4.7959 -0.105469c-68.9365 0 -115.471 67.0234 -138.372 199.358
c-15.7275 90.873 -14.9346 201.271 2.18457 302.894c6.00391 35.6074 40.8242 213.234 137.44 213.234c22.5967 0 43.6299 -9.66797 60.8379 -27.9619c49.2002 -52.3271 68.21 -175.853 56.502 -367.145l0.615234 -31.6543l-30.4854 -0.592773
c-16.5088 -0.316406 -40.9902 -0.427734 -67.4727 -0.427734c-32.0654 0 -67.0684 0.161133 -94.4209 0.277344c-4.92871 0.0224609 -9.57422 0.0449219 -13.9482 0.0615234c1.63574 -27.2363 4.55176 -53.5693 8.83105 -78.2832
c16.6201 -96.0508 46.0518 -150.208 80.3896 -148.728c29.8311 1.31348 52.4551 39.416 59.041 99.4326zM165.863 631.349c-26.6045 0 -62.7285 -75.8818 -77.3086 -162.381c-7.89453 -46.8506 -12.0742 -95.5967 -12.5625 -143.09
c4.87891 -0.0224609 10.1182 -0.0449219 15.7227 -0.0722656c38.7949 -0.171875 93.0127 -0.416016 131.957 -0.183594c10.4502 216.461 -25.124 279.671 -41.3945 296.968c-7.38965 7.84961 -12.9053 8.75879 -16.4141 8.75879z" />
    <glyph glyph-name="E" unicode="&#xca;" horiz-adv-x="308" 
d="M225.765 137.304l3.33008 30.3057l60.6211 -6.65234l-3.32617 -30.3135c-15.2061 -138.505 -93.3779 -152.658 -116.972 -153.7c-1.60742 -0.0722656 -3.20996 -0.105469 -4.7959 -0.105469c-68.9365 0 -115.471 67.0234 -138.372 199.358
c-15.7275 90.873 -14.9346 201.271 2.18457 302.894c6.00391 35.6074 40.8242 213.234 137.44 213.234c22.5967 0 43.6299 -9.66797 60.8379 -27.9619c49.2002 -52.3271 68.21 -175.853 56.502 -367.145l0.615234 -31.6543l-30.4854 -0.592773
c-16.5088 -0.316406 -40.9902 -0.427734 -67.4727 -0.427734c-32.0654 0 -67.0684 0.161133 -94.4209 0.277344c-4.92871 0.0224609 -9.57422 0.0449219 -13.9482 0.0615234c1.63574 -27.2363 4.55176 -53.5693 8.83105 -78.2832
c16.6201 -96.0508 46.0518 -150.208 80.3896 -148.728c29.8311 1.31348 52.4551 39.416 59.041 99.4326zM165.863 631.349c-26.6045 0 -62.7285 -75.8818 -77.3086 -162.381c-7.89453 -46.8506 -12.0742 -95.5967 -12.5625 -143.09
c4.87891 -0.0224609 10.1182 -0.0449219 15.7227 -0.0722656c38.7949 -0.171875 93.0127 -0.416016 131.957 -0.183594c10.4502 216.461 -25.124 279.671 -41.3945 296.968c-7.38965 7.84961 -12.9053 8.75879 -16.4141 8.75879z" />
    <glyph glyph-name="E" unicode="&#xc9;" horiz-adv-x="308" 
d="M225.765 137.304l3.33008 30.3057l60.6211 -6.65234l-3.32617 -30.3135c-15.2061 -138.505 -93.3779 -152.658 -116.972 -153.7c-1.60742 -0.0722656 -3.20996 -0.105469 -4.7959 -0.105469c-68.9365 0 -115.471 67.0234 -138.372 199.358
c-15.7275 90.873 -14.9346 201.271 2.18457 302.894c6.00391 35.6074 40.8242 213.234 137.44 213.234c22.5967 0 43.6299 -9.66797 60.8379 -27.9619c49.2002 -52.3271 68.21 -175.853 56.502 -367.145l0.615234 -31.6543l-30.4854 -0.592773
c-16.5088 -0.316406 -40.9902 -0.427734 -67.4727 -0.427734c-32.0654 0 -67.0684 0.161133 -94.4209 0.277344c-4.92871 0.0224609 -9.57422 0.0449219 -13.9482 0.0615234c1.63574 -27.2363 4.55176 -53.5693 8.83105 -78.2832
c16.6201 -96.0508 46.0518 -150.208 80.3896 -148.728c29.8311 1.31348 52.4551 39.416 59.041 99.4326zM165.863 631.349c-26.6045 0 -62.7285 -75.8818 -77.3086 -162.381c-7.89453 -46.8506 -12.0742 -95.5967 -12.5625 -143.09
c4.87891 -0.0224609 10.1182 -0.0449219 15.7227 -0.0722656c38.7949 -0.171875 93.0127 -0.416016 131.957 -0.183594c10.4502 216.461 -25.124 279.671 -41.3945 296.968c-7.38965 7.84961 -12.9053 8.75879 -16.4141 8.75879z" />
    <glyph glyph-name="F" unicode="F" horiz-adv-x="229" 
d="M91.5918 636.484c-2.0127 -168.441 -2.13867 -329.437 -0.353516 -496.037c26.543 -0.277344 64.834 -0.587891 82.1855 0.232422l30.457 1.44141l2.88281 -60.9092l-30.457 -1.44727c-9.45801 -0.443359 -23.6279 -0.592773 -38.9727 -0.592773
c-15.1289 0 -31.3613 0.144531 -45.3701 0.289062c0.349609 -26.1328 0.737305 -52.4209 1.18066 -78.9531l0.509766 -30.4902l-60.9756 -1.01465l-0.504883 30.4854c-0.449219 26.9707 -0.842773 53.6914 -1.19727 80.2461h-0.105469v7.91602
c-2.5 192.712 -2.48926 376.215 0 570.273v39.3379h30.4902c5.69922 0 15.3789 0.0771484 27.1709 0.182617c34.0771 0.283203 85.5674 0.720703 111.518 -0.205078l30.4736 -1.08691l-2.18457 -60.9424l-30.4736 1.0918
c-24.0039 0.853516 -72.7666 0.470703 -106.273 0.182617z" />
    <glyph glyph-name="G" unicode="G" horiz-adv-x="311" 
d="M290.734 393.208c2.54492 -163.18 -0.107422 -327.702 -61.4434 -389.964c-16.9697 -17.2246 -38.125 -26.333 -61.1816 -26.333h-0.0556641c-71.2148 0.0439453 -118.93 67.084 -141.809 199.274c-15.7275 90.8838 -14.9297 201.282 2.18945 302.899
c5.99805 35.6016 40.8125 213.201 137.429 213.234h0.0322266c54.373 0 93.7227 -51.9395 105.265 -138.954l4.01367 -30.2246l-60.4541 -8.02148l-4.00781 30.2246c-6.6084 49.8379 -25.457 86 -44.8154 86h-0.00585938
c-26.6152 -0.0107422 -62.749 -75.8877 -77.3184 -162.387c-16.0215 -95.0918 -16.8359 -198.006 -2.2334 -282.359c9.61328 -55.5205 33.0137 -148.672 81.7598 -148.699h0.0175781c6.80762 0 12.1133 2.43945 17.7402 8.14941
c48.5303 49.2617 45.4033 249.817 43.9014 346.206c-0.09375 6.10938 -0.182617 11.9521 -0.265625 17.5293c-16.332 -0.149414 -30.8506 -0.576172 -54.0957 -1.7793l-30.4521 -1.56934l-3.14355 60.8984l30.4521 1.57422c37.5586 1.94043 53.1084 1.94043 87.1807 1.94043
h30.4902l0.283203 -30.4902c0 -13.333 0.244141 -29.0049 0.527344 -47.1494z" />
    <glyph glyph-name="H" unicode="H" horiz-adv-x="321" 
d="M292.612 -2.70898l0.521484 -30.4805l-60.9756 -1.00879l-0.504883 30.4854c-0.443359 26.582 -0.831055 52.9258 -1.18066 79.1143c-8.64258 -0.0996094 -18.3721 -0.143555 -28.7559 -0.143555c-25.0967 0 -53.8242 0.244141 -79.0869 0.455078
c-11.0596 0.0888672 -21.4873 0.177734 -30.6514 0.238281c0.34375 -26.0332 0.731445 -52.2275 1.16895 -78.6602l0.504883 -30.4854l-60.9756 -1.00879l-0.504883 30.4854c-0.78125 47.2158 -1.40723 93.7002 -1.90039 139.779l-0.00585938 0.277344
c-1.89062 177.045 -1.66309 347.731 0.676758 527.564l0.393555 30.4902l60.9756 -0.797852l-0.393555 -30.4854c-2.33398 -179.362 -2.56152 -349.594 -0.676758 -526.179c9.36328 -0.0605469 20.085 -0.143555 31.8984 -0.243164
c35.5303 -0.310547 77.9736 -0.670898 106.596 -0.321289c-1.89062 177.018 -1.66309 347.692 0.676758 527.537l0.393555 30.4902l60.9756 -0.792969l-0.393555 -30.4854c-2.93848 -226.151 -2.55078 -437.723 1.22461 -665.825z" />
    <glyph glyph-name="I" unicode="I" horiz-adv-x="121" 
d="M92.3164 693.596l-0.387695 -30.4795c-2.93848 -226.218 -2.55078 -437.783 1.22461 -665.825l0.504883 -30.4854l-60.9756 -1.00879l-0.504883 30.4854c-3.78613 228.651 -4.17969 440.794 -1.23047 667.621l0.393555 30.4902z" />
    <glyph glyph-name="I" unicode="&#xcf;" horiz-adv-x="121" 
d="M92.3164 693.596l-0.387695 -30.4795c-2.93848 -226.218 -2.55078 -437.783 1.22461 -665.825l0.504883 -30.4854l-60.9756 -1.00879l-0.504883 30.4854c-3.78613 228.651 -4.17969 440.794 -1.23047 667.621l0.393555 30.4902z" />
    <glyph glyph-name="I" unicode="&#xce;" horiz-adv-x="121" 
d="M92.3164 693.596l-0.387695 -30.4795c-2.93848 -226.218 -2.55078 -437.783 1.22461 -665.825l0.504883 -30.4854l-60.9756 -1.00879l-0.504883 30.4854c-3.78613 228.651 -4.17969 440.794 -1.23047 667.621l0.393555 30.4902z" />
    <glyph glyph-name="I" unicode="&#xcd;" horiz-adv-x="121" 
d="M92.3164 693.596l-0.387695 -30.4795c-2.93848 -226.218 -2.55078 -437.783 1.22461 -665.825l0.504883 -30.4854l-60.9756 -1.00879l-0.504883 30.4854c-3.78613 228.651 -4.17969 440.794 -1.23047 667.621l0.393555 30.4902z" />
    <glyph glyph-name="J" unicode="J" horiz-adv-x="230" 
d="M84.0439 424.153l-1.46973 -30.4619c-14.7412 -304.534 21.249 -356.014 28.3008 -363.082c5.9209 0.56543 12.7949 3.60352 18.9434 25.4844c7.54492 26.8486 9.61816 68.8311 10.416 123.608c2.03418 139.425 0.387695 251.392 -2.0957 420.869l-0.46582 31.8936
c-29.7256 -0.753906 -69.2744 -2.17285 -81.4268 -3.52539l-30.3018 -3.38184l-6.76367 60.6094l30.3018 3.37598c21.7871 2.43359 99.3604 4.40137 118.148 4.45117l30.1357 0.0830078l1.3418 -92.6084c2.49512 -170.01 4.1416 -282.326 2.10156 -422.649
c-1.4082 -96.6826 -2.99902 -206.276 -90.8174 -209.292c-0.592773 -0.0166016 -1.20801 -0.0332031 -1.83984 -0.0332031c-10.8994 0 -26.2666 3.33203 -40.8076 18.0732c-26.9541 27.3418 -61.0645 99.4883 -46.085 409.078l1.47461 30.457z" />
    <glyph glyph-name="K" unicode="K" horiz-adv-x="280" 
d="M278.913 681.383l-10.6377 -28.5693c-49.0117 -131.575 -122.444 -373.199 -156.832 -489.723c30.6123 11.2764 67.29 16.8643 99.793 -1.08105c41.7666 -23.0615 62.0674 -75.1953 62.0674 -159.388v-30.4902h-60.9814v30.4902
c0 57.4717 -10.8545 95.1191 -30.5684 106.007c-12.3955 6.84668 -38.0635 8.00488 -89.8975 -23.3398c0.376953 -29.1045 0.80957 -58.4092 1.29785 -87.9961l0.504883 -30.4854l-60.9756 -1.00879l-0.504883 30.4854c-3.78613 228.713 -4.17969 440.86 -1.23047 667.621
l0.393555 30.4902l60.9756 -0.797852l-0.393555 -30.4854c-1.58594 -121.885 -2.19531 -239.545 -1.83496 -357.832c39.8037 129.318 90.7451 287.509 121.036 368.818l10.6436 28.5723z" />
    <glyph glyph-name="L" unicode="L" horiz-adv-x="196" 
d="M173.362 -33.499c-4.53516 -0.149414 -10.8877 -0.206055 -18.3271 -0.200195c-17.6406 0 -41.418 0.327148 -61.708 0.610352c-13.4932 0.188477 -24.9189 0.349609 -30.6621 0.349609h-30.4902v35.1914c-3.78613 226.617 -4.17383 436.808 -1.22461 661.456
l0.399414 30.4854l60.9756 -0.797852l-0.399414 -30.4902c-2.83301 -215.923 -2.56738 -418.497 0.831055 -635.207c0.476562 -0.00585938 0.936523 -0.0117188 1.41895 -0.0175781c26.7373 -0.371094 63.3486 -0.886719 77.2188 -0.431641l30.4736 0.986328
l1.96777 -60.9482z" />
    <glyph glyph-name="M" unicode="M" horiz-adv-x="413" 
d="M324.707 39.3398c-3.1709 186.924 -6.17773 364.514 -4.60352 560.768c-17.3076 -32.6416 -38.8564 -95.8564 -57.5391 -218.301c-20.6279 -135.189 -26.5098 -272.037 -26.5654 -273.4l-60.7373 -2.35059c-0.149414 1.23633 -15.1006 125.511 -38.5615 254.042
c-17.5186 95.9902 -33.1738 158.407 -45.9023 198.938c-1.62402 -186.791 -0.842773 -366.68 2.37793 -558.354l0.515625 -30.4902l-60.9756 -1.02539l-0.509766 30.4854c-3.81445 227.193 -4.21875 437.855 -1.25879 662.965l0.366211 28.0186l27.9463 1.99609
c45.3037 3.20996 85.2852 -46.3564 133.217 -298.929c1.95117 -10.2891 3.8584 -20.6055 5.7041 -30.8721c1.27539 9.20801 2.62207 18.4775 4.03613 27.7471c31.3779 205.938 78.417 302.948 148.046 305.31l31.9434 1.08105l-0.420898 -31.96
c-2.92676 -221.949 0.388672 -417.549 3.89746 -624.63l1.18066 -70.1895l-60.9756 -1.02539z" />
    <glyph glyph-name="N" unicode="N" horiz-adv-x="338" 
d="M122.744 358.11c-9.55176 51.5342 -20.7715 112.066 -32.3193 163.706c-1.01465 -174.771 -0.288086 -344.554 2.20703 -524.625l0.420898 -30.4854l-60.9756 -0.842773l-0.420898 30.4854c-3.1709 229.028 -3.49219 441.465 -1.01367 668.553l0.327148 29.8418
l29.8359 0.321289h0.553711c58.4756 0 79.5088 -100.143 121.348 -325.845c15.5723 -84.0205 31.6768 -170.902 49.9209 -239.234c5.0166 -18.7988 9.76172 -34.4824 14.1748 -47.5654c-2.13477 196.581 -2.1123 383.66 0.0390625 581.411l0.333008 30.4902
l60.9814 -0.665039l-0.333008 -30.4854c-2.49512 -229.15 -2.12402 -443.92 1.16309 -675.893l0.4375 -30.9229h-30.9287c-77.5068 0 -108.186 145.174 -155.751 401.755z" />
    <glyph glyph-name="O" unicode="O" 
d="M132.422 -14.7275c-30.9785 13.1719 -58.0049 44.7217 -78.1504 91.2451c-19.4697 44.9209 -32.4033 102.57 -36.417 162.32c-10.1895 151.671 8.8252 255.067 26.5762 315.101c24.6699 83.4277 61.0977 132.745 102.576 138.865
c24.6914 3.62012 48.4795 -3.37598 68.8086 -20.2734c79.7412 -66.3027 89.6201 -272.059 90.4854 -295.298c3.80273 -102.094 -7.31836 -202.363 -30.4971 -275.103c-2.65527 -8.31055 -5.44922 -16.3105 -8.31543 -23.7949v-0.00585938
c-10.4883 -27.3584 -22.4346 -49.1787 -35.501 -64.8398c-19.0645 -22.8564 -43.0576 -34.875 -67.7998 -34.875c-10.5605 0 -21.2549 2.18457 -31.7656 6.6582zM102.341 534.718c-22.6572 -77.8672 -31.0635 -181.49 -23.6572 -291.788
c3.55957 -52.9814 14.752 -103.474 31.5215 -142.169c19.0762 -44.0117 38.5684 -56.1807 46.0693 -59.3682c4.67871 -1.99609 14.4414 -6.13184 28.877 11.165c8.63672 10.3506 17.4121 26.8154 25.3838 47.6045c2.45605 6.39746 4.8623 13.2881 7.15723 20.4893
c21.127 66.2861 31.2109 158.988 27.6631 254.318c-3.59766 96.8936 -28.8438 217.67 -68.5312 250.672c-6.90723 5.7373 -12.5947 7.12891 -17.1348 7.12891c-1.36328 0 -2.62695 -0.12793 -3.79102 -0.299805c-5.26074 -1.05371 -31.4434 -21.7764 -53.5576 -97.7529z" />
    <glyph glyph-name="O" unicode="&#xd6;" 
d="M132.422 -14.7275c-30.9785 13.1719 -58.0049 44.7217 -78.1504 91.2451c-19.4697 44.9209 -32.4033 102.57 -36.417 162.32c-10.1895 151.671 8.8252 255.067 26.5762 315.101c24.6699 83.4277 61.0977 132.745 102.576 138.865
c24.6914 3.62012 48.4795 -3.37598 68.8086 -20.2734c79.7412 -66.3027 89.6201 -272.059 90.4854 -295.298c3.80273 -102.094 -7.31836 -202.363 -30.4971 -275.103c-2.65527 -8.31055 -5.44922 -16.3105 -8.31543 -23.7949v-0.00585938
c-10.4883 -27.3584 -22.4346 -49.1787 -35.501 -64.8398c-19.0645 -22.8564 -43.0576 -34.875 -67.7998 -34.875c-10.5605 0 -21.2549 2.18457 -31.7656 6.6582zM102.341 534.718c-22.6572 -77.8672 -31.0635 -181.49 -23.6572 -291.788
c3.55957 -52.9814 14.752 -103.474 31.5215 -142.169c19.0762 -44.0117 38.5684 -56.1807 46.0693 -59.3682c4.67871 -1.99609 14.4414 -6.13184 28.877 11.165c8.63672 10.3506 17.4121 26.8154 25.3838 47.6045c2.45605 6.39746 4.8623 13.2881 7.15723 20.4893
c21.127 66.2861 31.2109 158.988 27.6631 254.318c-3.59766 96.8936 -28.8438 217.67 -68.5312 250.672c-6.90723 5.7373 -12.5947 7.12891 -17.1348 7.12891c-1.36328 0 -2.62695 -0.12793 -3.79102 -0.299805c-5.26074 -1.05371 -31.4434 -21.7764 -53.5576 -97.7529z" />
    <glyph glyph-name="O" unicode="&#xd5;" 
d="M132.422 -14.7275c-30.9785 13.1719 -58.0049 44.7217 -78.1504 91.2451c-19.4697 44.9209 -32.4033 102.57 -36.417 162.32c-10.1895 151.671 8.8252 255.067 26.5762 315.101c24.6699 83.4277 61.0977 132.745 102.576 138.865
c24.6914 3.62012 48.4795 -3.37598 68.8086 -20.2734c79.7412 -66.3027 89.6201 -272.059 90.4854 -295.298c3.80273 -102.094 -7.31836 -202.363 -30.4971 -275.103c-2.65527 -8.31055 -5.44922 -16.3105 -8.31543 -23.7949v-0.00585938
c-10.4883 -27.3584 -22.4346 -49.1787 -35.501 -64.8398c-19.0645 -22.8564 -43.0576 -34.875 -67.7998 -34.875c-10.5605 0 -21.2549 2.18457 -31.7656 6.6582zM102.341 534.718c-22.6572 -77.8672 -31.0635 -181.49 -23.6572 -291.788
c3.55957 -52.9814 14.752 -103.474 31.5215 -142.169c19.0762 -44.0117 38.5684 -56.1807 46.0693 -59.3682c4.67871 -1.99609 14.4414 -6.13184 28.877 11.165c8.63672 10.3506 17.4121 26.8154 25.3838 47.6045c2.45605 6.39746 4.8623 13.2881 7.15723 20.4893
c21.127 66.2861 31.2109 158.988 27.6631 254.318c-3.59766 96.8936 -28.8438 217.67 -68.5312 250.672c-6.90723 5.7373 -12.5947 7.12891 -17.1348 7.12891c-1.36328 0 -2.62695 -0.12793 -3.79102 -0.299805c-5.26074 -1.05371 -31.4434 -21.7764 -53.5576 -97.7529z" />
    <glyph glyph-name="O" unicode="&#xd4;" 
d="M132.422 -14.7275c-30.9785 13.1719 -58.0049 44.7217 -78.1504 91.2451c-19.4697 44.9209 -32.4033 102.57 -36.417 162.32c-10.1895 151.671 8.8252 255.067 26.5762 315.101c24.6699 83.4277 61.0977 132.745 102.576 138.865
c24.6914 3.62012 48.4795 -3.37598 68.8086 -20.2734c79.7412 -66.3027 89.6201 -272.059 90.4854 -295.298c3.80273 -102.094 -7.31836 -202.363 -30.4971 -275.103c-2.65527 -8.31055 -5.44922 -16.3105 -8.31543 -23.7949v-0.00585938
c-10.4883 -27.3584 -22.4346 -49.1787 -35.501 -64.8398c-19.0645 -22.8564 -43.0576 -34.875 -67.7998 -34.875c-10.5605 0 -21.2549 2.18457 -31.7656 6.6582zM102.341 534.718c-22.6572 -77.8672 -31.0635 -181.49 -23.6572 -291.788
c3.55957 -52.9814 14.752 -103.474 31.5215 -142.169c19.0762 -44.0117 38.5684 -56.1807 46.0693 -59.3682c4.67871 -1.99609 14.4414 -6.13184 28.877 11.165c8.63672 10.3506 17.4121 26.8154 25.3838 47.6045c2.45605 6.39746 4.8623 13.2881 7.15723 20.4893
c21.127 66.2861 31.2109 158.988 27.6631 254.318c-3.59766 96.8936 -28.8438 217.67 -68.5312 250.672c-6.90723 5.7373 -12.5947 7.12891 -17.1348 7.12891c-1.36328 0 -2.62695 -0.12793 -3.79102 -0.299805c-5.26074 -1.05371 -31.4434 -21.7764 -53.5576 -97.7529z" />
    <glyph glyph-name="O" unicode="&#xd3;" 
d="M132.422 -14.7275c-30.9785 13.1719 -58.0049 44.7217 -78.1504 91.2451c-19.4697 44.9209 -32.4033 102.57 -36.417 162.32c-10.1895 151.671 8.8252 255.067 26.5762 315.101c24.6699 83.4277 61.0977 132.745 102.576 138.865
c24.6914 3.62012 48.4795 -3.37598 68.8086 -20.2734c79.7412 -66.3027 89.6201 -272.059 90.4854 -295.298c3.80273 -102.094 -7.31836 -202.363 -30.4971 -275.103c-2.65527 -8.31055 -5.44922 -16.3105 -8.31543 -23.7949v-0.00585938
c-10.4883 -27.3584 -22.4346 -49.1787 -35.501 -64.8398c-19.0645 -22.8564 -43.0576 -34.875 -67.7998 -34.875c-10.5605 0 -21.2549 2.18457 -31.7656 6.6582zM102.341 534.718c-22.6572 -77.8672 -31.0635 -181.49 -23.6572 -291.788
c3.55957 -52.9814 14.752 -103.474 31.5215 -142.169c19.0762 -44.0117 38.5684 -56.1807 46.0693 -59.3682c4.67871 -1.99609 14.4414 -6.13184 28.877 11.165c8.63672 10.3506 17.4121 26.8154 25.3838 47.6045c2.45605 6.39746 4.8623 13.2881 7.15723 20.4893
c21.127 66.2861 31.2109 158.988 27.6631 254.318c-3.59766 96.8936 -28.8438 217.67 -68.5312 250.672c-6.90723 5.7373 -12.5947 7.12891 -17.1348 7.12891c-1.36328 0 -2.62695 -0.12793 -3.79102 -0.299805c-5.26074 -1.05371 -31.4434 -21.7764 -53.5576 -97.7529z" />
    <glyph glyph-name="P" unicode="P" horiz-adv-x="297" 
d="M284.166 468.343c10.8711 -107.216 -8.41992 -254.842 -76.4805 -325.607c-38.3125 -39.8369 -84.4922 -51.4121 -116.014 -57.4434c0.299805 -25.6338 0.632812 -51.4229 1.00391 -77.4395l0.4375 -30.4902l-60.9756 -0.870117l-0.4375 30.4854
c-0.598633 42.0654 -1.10352 83.5605 -1.50293 124.695l-0.704102 3.39258l0.670898 0.138672c-1.71289 178.58 -1.53027 350.397 0.526367 531.755l0.232422 20.4453l19.0039 7.54492c35.7236 14.2139 97.3867 11.8799 138.727 -16.582
c69.4131 -47.7705 89.6367 -152.093 95.5127 -210.024zM91.0342 147.414c23.5391 5.27246 50.5322 14.542 72.6963 37.5928c45.3203 47.1221 71.0098 166.285 59.7617 277.188c-8.06641 79.5469 -34.0166 141.581 -69.4131 165.945
c-17.5684 12.0908 -43.1475 15.6719 -62.6729 14.0752c-1.75781 -168.191 -1.89062 -328.699 -0.37207 -494.801z" />
    <glyph glyph-name="Q" unicode="Q" 
d="M231.993 13.4844c-7.08496 -8.4873 -14.8525 -15.4688 -23.085 -20.9072c18.7324 -52.0889 36.4111 -106.462 52.5215 -162.237l8.45996 -29.293l-58.5859 -16.9199l-8.45996 29.2871c-16.5977 57.4883 -34.875 113.464 -54.2832 166.806
c-5.39941 1.10352 -10.7939 2.77246 -16.1377 5.04492c-30.9678 13.1719 -57.9932 44.7217 -78.1553 91.2451c-19.4639 44.9268 -32.3975 102.576 -36.4111 162.321c-10.1895 151.671 8.8252 255.067 26.5762 315.101c24.6699 83.4277 61.0977 132.745 102.576 138.865
c24.6914 3.62012 48.4795 -3.37598 68.8086 -20.2734c79.7412 -66.3027 89.6201 -272.059 90.4854 -295.298c3.79785 -102.104 -7.32324 -202.374 -30.502 -275.103c-2.64453 -8.30469 -5.44434 -16.3154 -8.31641 -23.8047
c-10.4834 -27.3477 -22.4248 -49.1621 -35.4912 -64.834zM210.549 100.159c2.4502 6.3916 4.85742 13.29 7.14746 20.4805c21.127 66.2861 31.2109 158.988 27.6689 254.329c-3.59766 96.8936 -28.8438 217.67 -68.5312 250.672
c-6.90723 5.7373 -12.5947 7.12891 -17.1348 7.12891c-1.36328 0 -2.62695 -0.12793 -3.79102 -0.299805c-5.26074 -1.05371 -31.4434 -21.7764 -53.5576 -97.7529c-22.6631 -77.8672 -31.0615 -181.496 -23.6494 -291.794
c3.55957 -52.9814 14.7578 -103.469 31.5225 -142.17c19.0762 -44.0117 38.5684 -56.1807 46.0693 -59.3682c4.68457 -2.00098 14.4414 -6.14258 28.877 11.165c8.63672 10.3555 17.4121 26.8203 25.3789 47.5986v0.0107422z" />
    <glyph glyph-name="R" unicode="R" horiz-adv-x="300" 
d="M154.997 104.884c34.8311 -26.46 68.9932 -57.5049 91.6611 -81.9912l20.7109 -22.375l-44.749 -41.4287l-20.7109 22.375c-26.9199 29.082 -71.2588 67.7549 -110.109 93.7324c0.265625 -22.3135 0.548828 -44.7324 0.875977 -67.3457l0.4375 -30.4902
l-60.9756 -0.870117l-0.4375 30.4854c-0.598633 42.0713 -1.10352 83.5605 -1.50293 124.695l-0.704102 3.39258l0.670898 0.138672c-1.71289 178.647 -1.53027 350.465 0.526367 531.756l0.232422 20.4453l19.0039 7.54492
c35.7236 14.2031 97.3867 11.8799 138.727 -16.582c69.4131 -47.7705 89.6367 -152.093 95.5127 -210.024c10.877 -107.21 -8.4209 -254.834 -76.4756 -325.605c-16.6924 -17.3574 -34.876 -29.3428 -52.6934 -37.8525zM91.4121 642.211
c-1.7627 -168.119 -1.88965 -328.657 -0.371094 -494.803c23.5391 5.27246 50.5312 14.5361 72.7002 37.5928c45.3203 47.1221 71.0098 166.285 59.7617 277.188c-8.06641 79.5469 -34.0166 141.576 -69.4189 165.946c-17.5684 12.0967 -43.1582 15.7002 -62.6719 14.0762z
" />
    <glyph glyph-name="S" unicode="S" horiz-adv-x="306" 
d="M285.899 48.7031c-22.6182 -49.8877 -69.2354 -79.1328 -120.897 -79.1162c-13.3271 0 -26.9922 1.94629 -40.6689 5.9873c-37.5479 11.0986 -105.514 66.6914 -94.0439 197.651l2.66113 30.374l60.748 -5.32227l-2.66113 -30.374
c-8.28223 -94.6094 34.8311 -129.202 50.5859 -133.859c36.6992 -10.8711 73.1934 5.53809 88.7383 39.8369c8.03809 17.7236 11.3037 38.4521 8.98047 56.8682c-8.65918 68.5205 -55.1934 114.34 -104.466 162.854c-67.0234 65.9814 -142.983 140.777 -118.009 279.071
c6.3916 35.3916 29.7305 83.0957 67.4727 109.866c28.3115 20.0908 63.6533 24.2432 94.5371 11.1211c29.3379 -12.4619 67.0801 -45.6523 80.2852 -132.994l4.55664 -30.1465l-60.2939 -9.11914l-4.55664 30.1465c-6.91895 45.7471 -22.8965 77.0967 -43.8408 85.9893
c-16.6807 7.0791 -31.3164 -1.83496 -35.4023 -4.72852c-22.3027 -15.8271 -38.6738 -48.3799 -42.7539 -70.9766c-19.2529 -106.601 36.373 -161.367 100.78 -224.782c54.5117 -53.6689 110.875 -109.156 122.185 -198.66
c3.75879 -29.7256 -1.19141 -61.5801 -13.9365 -89.6865z" />
    <glyph glyph-name="T" unicode="T" horiz-adv-x="259" 
d="M160.045 -2.70312l0.511719 -30.4746l-60.9756 -1.02539l-0.509766 30.4854c-3.68066 218.828 -4.14648 422.283 -1.46289 638.467c-10.8994 0.22168 -22.3643 0.470703 -34.4111 0.731445c-20.8828 0.455078 -37.375 0.81543 -41.7051 0.81543h-30.4902v60.9814h30.4902
c4.99512 0 20.1299 -0.327148 43.042 -0.832031c46.2295 -1.00879 154.493 -3.39258 168.402 -1.90137l30.2852 3.2207l6.56934 -60.5654l-30.2803 -3.28223c-5.05078 -0.548828 -15.5449 -0.797852 -31.1953 -0.797852c-13.0391 0 -29.6816 0.171875 -49.7334 0.482422
c-2.66699 -215.44 -2.20117 -418.22 1.46289 -636.305z" />
    <glyph glyph-name="U" unicode="U" horiz-adv-x="361" 
d="M331.765 663.942c-2.95996 -223.851 -2.55664 -441.908 1.21875 -666.651l0.515625 -30.4854l-60.9756 -1.03125l-0.509766 30.4854c-0.105469 6.48047 -0.182617 12.9053 -0.288086 19.375c-29.4092 -38.3789 -65.2822 -46.1348 -101.461 -46.1348h-1.05859
c-25.5234 0 -49.1338 10.7441 -68.293 31.0674c-69.6797 73.915 -92.8799 290.726 -70.9268 662.805l2.62207 46.4678l60.8867 -3.38184l-2.63281 -46.6729c-27.042 -458.262 22.4912 -583.512 54.4229 -617.384c10.0674 -10.6719 18.4717 -11.9082 23.9209 -11.9082
h0.986328c29.7812 0.116211 71.1152 -0.0224609 94.7539 147.408l4.5459 28.3398c-1.14746 152.785 -0.737305 304.29 1.29688 458.506l0.404297 30.4902l60.9756 -0.80957z" />
    <glyph glyph-name="U" unicode="&#xdc;" horiz-adv-x="361" 
d="M331.765 663.942c-2.95996 -223.851 -2.55664 -441.908 1.21875 -666.651l0.515625 -30.4854l-60.9756 -1.03125l-0.509766 30.4854c-0.105469 6.48047 -0.182617 12.9053 -0.288086 19.375c-29.4092 -38.3789 -65.2822 -46.1348 -101.461 -46.1348h-1.05859
c-25.5234 0 -49.1338 10.7441 -68.293 31.0674c-69.6797 73.915 -92.8799 290.726 -70.9268 662.805l2.62207 46.4678l60.8867 -3.38184l-2.63281 -46.6729c-27.042 -458.262 22.4912 -583.512 54.4229 -617.384c10.0674 -10.6719 18.4717 -11.9082 23.9209 -11.9082
h0.986328c29.7812 0.116211 71.1152 -0.0224609 94.7539 147.408l4.5459 28.3398c-1.14746 152.785 -0.737305 304.29 1.29688 458.506l0.404297 30.4902l60.9756 -0.80957z" />
    <glyph glyph-name="U" unicode="&#xdb;" horiz-adv-x="361" 
d="M331.765 663.942c-2.95996 -223.851 -2.55664 -441.908 1.21875 -666.651l0.515625 -30.4854l-60.9756 -1.03125l-0.509766 30.4854c-0.105469 6.48047 -0.182617 12.9053 -0.288086 19.375c-29.4092 -38.3789 -65.2822 -46.1348 -101.461 -46.1348h-1.05859
c-25.5234 0 -49.1338 10.7441 -68.293 31.0674c-69.6797 73.915 -92.8799 290.726 -70.9268 662.805l2.62207 46.4678l60.8867 -3.38184l-2.63281 -46.6729c-27.042 -458.262 22.4912 -583.512 54.4229 -617.384c10.0674 -10.6719 18.4717 -11.9082 23.9209 -11.9082
h0.986328c29.7812 0.116211 71.1152 -0.0224609 94.7539 147.408l4.5459 28.3398c-1.14746 152.785 -0.737305 304.29 1.29688 458.506l0.404297 30.4902l60.9756 -0.80957z" />
    <glyph glyph-name="U" unicode="&#xda;" horiz-adv-x="361" 
d="M331.765 663.942c-2.95996 -223.851 -2.55664 -441.908 1.21875 -666.651l0.515625 -30.4854l-60.9756 -1.03125l-0.509766 30.4854c-0.105469 6.48047 -0.182617 12.9053 -0.288086 19.375c-29.4092 -38.3789 -65.2822 -46.1348 -101.461 -46.1348h-1.05859
c-25.5234 0 -49.1338 10.7441 -68.293 31.0674c-69.6797 73.915 -92.8799 290.726 -70.9268 662.805l2.62207 46.4678l60.8867 -3.38184l-2.63281 -46.6729c-27.042 -458.262 22.4912 -583.512 54.4229 -617.384c10.0674 -10.6719 18.4717 -11.9082 23.9209 -11.9082
h0.986328c29.7812 0.116211 71.1152 -0.0224609 94.7539 147.408l4.5459 28.3398c-1.14746 152.785 -0.737305 304.29 1.29688 458.506l0.404297 30.4902l60.9756 -0.80957z" />
    <glyph glyph-name="V" unicode="V" horiz-adv-x="393" 
d="M398.99 712.178l-4.80664 -30.1123c-34.3486 -214.881 -149.896 -677.251 -151.055 -681.896l-5.7207 -22.835l-53.3975 -0.56543l-6.09277 22.9014c-1.35254 5.07227 -135.583 509.475 -181.89 679.19l-8.02734 29.415l58.8301 16.0547l8.02148 -29.4209
c33.3955 -122.389 112.422 -418.485 154.51 -576.388c36.123 149.182 100.607 423.064 124.601 573.172l4.81152 30.1084z" />
    <glyph glyph-name="W" unicode="W" horiz-adv-x="495" 
d="M429.15 689.914l3.02539 30.3516l60.6758 -6.06445l-3.03223 -30.3408c-21.665 -216.865 -97.4814 -646.927 -106.052 -695.252l-4.31348 -24.3037l-52.333 -1.78516l-83.5215 500.167c-5.9873 -41.3115 -12.3457 -85.6729 -18.4551 -128.249
c-31.998 -223.146 -47.665 -330.196 -53.0928 -347.786l-7.15137 -23.1787l-49.7773 3.60352l-3.99121 23.5938c-8.7373 51.6016 -85.917 509.193 -105.675 682.258l-3.45898 30.2969l60.5879 6.91895l3.45898 -30.2969c12.5566 -109.966 48.6963 -336.999 75.3066 -499.275
c7.63965 52.4102 15.8779 109.838 23.4336 162.515c29.709 207.175 43.2139 299.528 47.8096 314.425l6.61328 21.4268l50.082 0.155273l84.3926 -505.356c26.1777 156.45 61.9795 381.193 75.4678 516.178z" />
    <glyph glyph-name="X" unicode="X" horiz-adv-x="303" 
d="M183.56 319.665c58.6084 -172.859 109.94 -314.827 110.806 -317.211l10.3838 -28.6719l-57.3389 -20.7617l-10.3838 28.667c-0.737305 2.04004 -38.2021 105.652 -85.6514 243.569c-47.4492 -137.917 -84.9141 -241.529 -85.6514 -243.569l-10.3838 -28.667
l-57.3389 20.7617l10.3838 28.6719c0.865234 2.38379 52.1943 144.359 110.803 317.213c-38.6787 114.572 -79.8018 240.648 -111.385 348.119l-8.59863 29.249l58.5088 17.1963l8.59863 -29.249c24.4531 -83.2119 54.6943 -177.728 85.0625 -269.344
c30.3682 91.6162 60.6094 186.137 85.0625 269.343l8.59863 29.2539l58.5088 -17.2021l-8.59863 -29.249c-31.583 -107.471 -72.7012 -233.547 -111.386 -348.119z" />
    <glyph glyph-name="Y" unicode="Y" horiz-adv-x="306" 
d="M275 -30.4893h-60.9648v30.4902c0 41.7393 0.265625 95.4521 0.586914 157.437c-20.3789 -53.9072 -46.3623 -78.2607 -79.209 -78.2607c-12.0635 0 -30.0029 3.67578 -46.9561 21.1992c-77.2129 79.8135 -74.2197 430.993 -69.3467 578.269l1.00879 30.4736
l60.9482 -2.0127l-1.00879 -30.4736c-1.21387 -36.7158 -4.56738 -166.384 3.26562 -293.308c13.2666 -214.997 47.6768 -240.659 51.8789 -242.993c4.36816 2.70508 35.8682 28.5166 57.8994 216.383c13.8652 118.242 18.3887 251.281 20.5615 315.212l0.426758 12.3457
l-0.515625 29.7812l1.54688 0.0273438l0.0556641 1.54688l29.6865 -1.03711l29.6816 0.509766l0.0273438 -1.54688l1.54688 -0.0556641l-1.03711 -29.8086c2.4834 -145.712 1.42969 -348.707 0.576172 -511.903c-0.354492 -68.1104 -0.65918 -126.94 -0.65918 -171.784
v-30.4902z" />
    <glyph glyph-name="Y" unicode="&#x178;" horiz-adv-x="306" 
d="M275 -30.4893h-60.9648v30.4902c0 41.7393 0.265625 95.4521 0.586914 157.437c-20.3789 -53.9072 -46.3623 -78.2607 -79.209 -78.2607c-12.0635 0 -30.0029 3.67578 -46.9561 21.1992c-77.2129 79.8135 -74.2197 430.993 -69.3467 578.269l1.00879 30.4736
l60.9482 -2.0127l-1.00879 -30.4736c-1.21387 -36.7158 -4.56738 -166.384 3.26562 -293.308c13.2666 -214.997 47.6768 -240.659 51.8789 -242.993c4.36816 2.70508 35.8682 28.5166 57.8994 216.383c13.8652 118.242 18.3887 251.281 20.5615 315.212l0.426758 12.3457
l-0.515625 29.7812l1.54688 0.0273438l0.0556641 1.54688l29.6865 -1.03711l29.6816 0.509766l0.0273438 -1.54688l1.54688 -0.0556641l-1.03711 -29.8086c2.4834 -145.712 1.42969 -348.707 0.576172 -511.903c-0.354492 -68.1104 -0.65918 -126.94 -0.65918 -171.784
v-30.4902z" />
    <glyph glyph-name="Y" unicode="&#xdd;" horiz-adv-x="306" 
d="M275 -30.4893h-60.9648v30.4902c0 41.7393 0.265625 95.4521 0.586914 157.437c-20.3789 -53.9072 -46.3623 -78.2607 -79.209 -78.2607c-12.0635 0 -30.0029 3.67578 -46.9561 21.1992c-77.2129 79.8135 -74.2197 430.993 -69.3467 578.269l1.00879 30.4736
l60.9482 -2.0127l-1.00879 -30.4736c-1.21387 -36.7158 -4.56738 -166.384 3.26562 -293.308c13.2666 -214.997 47.6768 -240.659 51.8789 -242.993c4.36816 2.70508 35.8682 28.5166 57.8994 216.383c13.8652 118.242 18.3887 251.281 20.5615 315.212l0.426758 12.3457
l-0.515625 29.7812l1.54688 0.0273438l0.0556641 1.54688l29.6865 -1.03711l29.6816 0.509766l0.0273438 -1.54688l1.54688 -0.0556641l-1.03711 -29.8086c2.4834 -145.712 1.42969 -348.707 0.576172 -511.903c-0.354492 -68.1104 -0.65918 -126.94 -0.65918 -171.784
v-30.4902z" />
    <glyph glyph-name="Z" unicode="Z" horiz-adv-x="278" 
d="M204.685 -25.1172c-31.0391 0 -81.0166 0.487305 -131.221 1.01367c-20.7334 0.21582 -38.6172 0.487305 -41.7324 0.371094l-42.7314 -0.376953l14.3418 42.9531c1.28027 3.8418 120.892 363.536 202.623 635.035
c-27.4414 -0.376953 -62.7666 -0.936523 -93.5957 -1.42969c-40.5244 -0.648438 -72.5342 -1.1582 -80.0791 -1.1582h-30.4902v60.9814h30.4902c7.05762 0 42.0557 0.55957 79.1104 1.14746c54.6221 0.870117 116.529 1.8623 135.628 1.8623h40.8467l-11.6143 -39.1553
c-67.04 -226.085 -167.897 -533.773 -202.712 -639.249c0.182617 0 0.365234 -0.00585938 0.547852 -0.00585938c49.5273 -0.509766 141.714 -1.49121 156.105 -0.753906l30.4521 1.54102l3.08203 -60.9033l-30.4521 -1.54102
c-4.62891 -0.232422 -14.7236 -0.332031 -28.5996 -0.332031z" />
    <glyph glyph-name="bracketleft" unicode="[" horiz-adv-x="243" 
d="M162.188 -199.671l30.9297 -52.5459l-26.2383 -15.5332c-10.2227 -6.05371 -36.5557 -13.7373 -61.2588 -13.7373c-19.1816 0 -37.3877 4.62891 -46.3184 18.25c-6.58594 10.0342 -7.12402 10.8545 -8.35449 193.354c-0.670898 99.5098 -1.00391 234.622 -0.9375 380.439
c0.0664062 140.961 0.509766 279.354 1.21973 379.686c0.382812 53.9404 0.832031 96.3223 1.33691 125.987c0.998047 58.6914 1.02051 59.8164 10.1514 69.4297c10.2559 10.7656 23.6826 14.5244 39.915 11.2207c2.18945 -0.449219 7.5498 -0.227539 11.8408 -0.0556641
c11.1709 0.46582 25.0469 1.02539 39.0176 -4.72852l28.1895 -11.6143l-23.2168 -56.3857l-28.1953 11.6084c-2.0293 0.654297 -8.82031 0.366211 -13.3105 0.183594c-1.03125 -0.0332031 -2.0791 -0.0771484 -3.14355 -0.116211
c-3.83105 -150.762 -3.88672 -913.663 -0.0507812 -1055.69c8.87012 0.881836 18.3994 2.7168 22.1855 4.71289z" />
    <glyph glyph-name="backslash" unicode="\" horiz-adv-x="357" 
d="M306.73 -128.646l-59.7861 -12.0137l-196.944 980.125l59.7861 12.0137z" />
    <glyph glyph-name="bracketright" unicode="]" horiz-adv-x="243" 
d="M193.108 310.553c0.0664062 -145.817 -0.264648 -280.929 -0.929688 -380.444c-1.23047 -182.5 -1.76855 -183.32 -8.36523 -193.365c-8.92578 -13.6104 -27.126 -18.2393 -46.3018 -18.2393c-24.708 0 -51.041 7.68359 -61.2695 13.7373l-26.2383 15.5332
l31.0615 52.4766l26.1494 -15.4785c3.80859 -1.99023 13.3105 -3.81934 22.1475 -4.68945c3.83594 142.025 3.77539 904.933 -0.0498047 1055.69c-1.06445 0.0332031 -2.1123 0.0771484 -3.14355 0.116211c-4.49023 0.194336 -11.2812 0.47168 -13.4326 -0.232422
l-28.1953 -11.6084l-23.0957 56.4355l28.1895 11.6143c13.959 5.75391 27.8457 5.20508 39.0166 4.72852c4.30176 -0.171875 9.65137 -0.387695 11.8633 0.0556641c16.2266 3.30371 29.6367 -0.460938 39.8652 -11.1992c9.1582 -9.64062 9.1748 -10.7607 10.1729 -69.458
c0.504883 -29.665 0.954102 -72.0527 1.33691 -125.987c0.714844 -100.325 1.1582 -238.719 1.21875 -379.685z" />
    <glyph glyph-name="asciicircum" unicode="^" horiz-adv-x="311" 
d="M253.048 529.514l7.50586 -29.542l-59.1016 -15.0234l-7.51172 29.5537c-7.70605 30.3301 -23.3613 93.2236 -37.5146 150.252c-14.2422 -54.4287 -30.1807 -115.842 -39.8818 -154.854l-7.3623 -29.5869l-59.1797 14.7188l7.3623 29.5928
c20.8164 83.6768 69.9951 269.265 70.4883 271.133l30.5068 115.094l28.5674 -115.593c0.504883 -2.0293 50.2549 -203.306 66.1211 -265.745z" />
    <glyph glyph-name="underscore" unicode="_" horiz-adv-x="385" 
d="M304.984 -105.022l30.4932 -0.410156l-0.820312 -60.9756l-30.4902 0.416016c-36.3281 0.449219 -73.7266 -1.37988 -109.905 -3.1875c-32.9463 -1.64648 -66.8965 -3.34277 -100.847 -3.34277c-4.30762 0 -8.61523 0.0273438 -12.9229 0.0878906l-30.4902 0.410156
l0.820312 60.9756l30.4902 -0.416016c36.3223 -0.459961 73.7256 1.38574 109.904 3.1875c37.1318 1.85742 75.5273 3.78711 113.768 3.25488z" />
    <glyph glyph-name="grave" unicode="`" horiz-adv-x="173" 
d="M119.123 636.214l3.83594 -30.2422l-60.4932 -7.67773l-3.83594 30.2471c-6.29199 49.5664 -9.16406 100.746 -8.54883 152.12l0.366211 30.4902l60.9814 -0.737305l-0.366211 -30.4902c-0.592773 -48.5684 2.12891 -96.9209 8.06055 -143.71z" />
    <glyph glyph-name="a" unicode="a" horiz-adv-x="353" 
d="M271.788 71.2227c-37.7637 0.260742 -92.2871 0.111328 -141.277 -0.0332031c-17.8506 -0.0498047 -35.0029 -0.0996094 -50.5146 -0.12207c-0.0224609 -15.1396 -0.0166016 -29.5703 -0.00585938 -43.1025l0.00585938 -50.1152h-60.9814l-0.00585938 50.0713
c-0.0722656 106.767 -0.183594 268.101 16.126 404.482c13.8486 115.765 43.7793 269.664 143.423 269.664c132.717 0 147.99 -264.907 153.401 -584.937c0.654297 -38.873 1.27539 -75.5947 2.41211 -105.708l1.14746 -30.4688l-60.9365 -2.29492l-1.14746 30.4688
c-0.704102 18.6768 -1.20898 39.6982 -1.64648 62.0947zM130.339 132.182c48.4688 0.12793 102.328 0.283203 140.375 0.0341797c-1.85156 107.814 -4.68457 237.698 -19.7139 341.366c-21.9258 151.188 -57.9658 167.509 -72.4404 167.509
c-13.3828 0 -58.9082 -15.5664 -82.874 -215.917c-11.2373 -93.9717 -14.4639 -201.154 -15.3672 -293.114c15.3779 0.0224609 32.3525 0.0722656 50.0205 0.12207z" />
    <glyph glyph-name="a" unicode="&#xe5;" horiz-adv-x="353" 
d="M271.788 71.2227c-37.7637 0.260742 -92.2871 0.111328 -141.277 -0.0332031c-17.8506 -0.0498047 -35.0029 -0.0996094 -50.5146 -0.12207c-0.0224609 -15.1396 -0.0166016 -29.5703 -0.00585938 -43.1025l0.00585938 -50.1152h-60.9814l-0.00585938 50.0713
c-0.0722656 106.767 -0.183594 268.101 16.126 404.482c13.8486 115.765 43.7793 269.664 143.423 269.664c132.717 0 147.99 -264.907 153.401 -584.937c0.654297 -38.873 1.27539 -75.5947 2.41211 -105.708l1.14746 -30.4688l-60.9365 -2.29492l-1.14746 30.4688
c-0.704102 18.6768 -1.20898 39.6982 -1.64648 62.0947zM130.339 132.182c48.4688 0.12793 102.328 0.283203 140.375 0.0341797c-1.85156 107.814 -4.68457 237.698 -19.7139 341.366c-21.9258 151.188 -57.9658 167.509 -72.4404 167.509
c-13.3828 0 -58.9082 -15.5664 -82.874 -215.917c-11.2373 -93.9717 -14.4639 -201.154 -15.3672 -293.114c15.3779 0.0224609 32.3525 0.0722656 50.0205 0.12207z" />
    <glyph glyph-name="a" unicode="&#xe4;" horiz-adv-x="353" 
d="M271.788 71.2227c-37.7637 0.260742 -92.2871 0.111328 -141.277 -0.0332031c-17.8506 -0.0498047 -35.0029 -0.0996094 -50.5146 -0.12207c-0.0224609 -15.1396 -0.0166016 -29.5703 -0.00585938 -43.1025l0.00585938 -50.1152h-60.9814l-0.00585938 50.0713
c-0.0722656 106.767 -0.183594 268.101 16.126 404.482c13.8486 115.765 43.7793 269.664 143.423 269.664c132.717 0 147.99 -264.907 153.401 -584.937c0.654297 -38.873 1.27539 -75.5947 2.41211 -105.708l1.14746 -30.4688l-60.9365 -2.29492l-1.14746 30.4688
c-0.704102 18.6768 -1.20898 39.6982 -1.64648 62.0947zM130.339 132.182c48.4688 0.12793 102.328 0.283203 140.375 0.0341797c-1.85156 107.814 -4.68457 237.698 -19.7139 341.366c-21.9258 151.188 -57.9658 167.509 -72.4404 167.509
c-13.3828 0 -58.9082 -15.5664 -82.874 -215.917c-11.2373 -93.9717 -14.4639 -201.154 -15.3672 -293.114c15.3779 0.0224609 32.3525 0.0722656 50.0205 0.12207z" />
    <glyph glyph-name="a" unicode="&#xe3;" horiz-adv-x="353" 
d="M271.788 71.2227c-37.7637 0.260742 -92.2871 0.111328 -141.277 -0.0332031c-17.8506 -0.0498047 -35.0029 -0.0996094 -50.5146 -0.12207c-0.0224609 -15.1396 -0.0166016 -29.5703 -0.00585938 -43.1025l0.00585938 -50.1152h-60.9814l-0.00585938 50.0713
c-0.0722656 106.767 -0.183594 268.101 16.126 404.482c13.8486 115.765 43.7793 269.664 143.423 269.664c132.717 0 147.99 -264.907 153.401 -584.937c0.654297 -38.873 1.27539 -75.5947 2.41211 -105.708l1.14746 -30.4688l-60.9365 -2.29492l-1.14746 30.4688
c-0.704102 18.6768 -1.20898 39.6982 -1.64648 62.0947zM130.339 132.182c48.4688 0.12793 102.328 0.283203 140.375 0.0341797c-1.85156 107.814 -4.68457 237.698 -19.7139 341.366c-21.9258 151.188 -57.9658 167.509 -72.4404 167.509
c-13.3828 0 -58.9082 -15.5664 -82.874 -215.917c-11.2373 -93.9717 -14.4639 -201.154 -15.3672 -293.114c15.3779 0.0224609 32.3525 0.0722656 50.0205 0.12207z" />
    <glyph glyph-name="a" unicode="&#xe2;" horiz-adv-x="353" 
d="M271.788 71.2227c-37.7637 0.260742 -92.2871 0.111328 -141.277 -0.0332031c-17.8506 -0.0498047 -35.0029 -0.0996094 -50.5146 -0.12207c-0.0224609 -15.1396 -0.0166016 -29.5703 -0.00585938 -43.1025l0.00585938 -50.1152h-60.9814l-0.00585938 50.0713
c-0.0722656 106.767 -0.183594 268.101 16.126 404.482c13.8486 115.765 43.7793 269.664 143.423 269.664c132.717 0 147.99 -264.907 153.401 -584.937c0.654297 -38.873 1.27539 -75.5947 2.41211 -105.708l1.14746 -30.4688l-60.9365 -2.29492l-1.14746 30.4688
c-0.704102 18.6768 -1.20898 39.6982 -1.64648 62.0947zM130.339 132.182c48.4688 0.12793 102.328 0.283203 140.375 0.0341797c-1.85156 107.814 -4.68457 237.698 -19.7139 341.366c-21.9258 151.188 -57.9658 167.509 -72.4404 167.509
c-13.3828 0 -58.9082 -15.5664 -82.874 -215.917c-11.2373 -93.9717 -14.4639 -201.154 -15.3672 -293.114c15.3779 0.0224609 32.3525 0.0722656 50.0205 0.12207z" />
    <glyph glyph-name="a" unicode="&#xe1;" horiz-adv-x="353" 
d="M271.788 71.2227c-37.7637 0.260742 -92.2871 0.111328 -141.277 -0.0332031c-17.8506 -0.0498047 -35.0029 -0.0996094 -50.5146 -0.12207c-0.0224609 -15.1396 -0.0166016 -29.5703 -0.00585938 -43.1025l0.00585938 -50.1152h-60.9814l-0.00585938 50.0713
c-0.0722656 106.767 -0.183594 268.101 16.126 404.482c13.8486 115.765 43.7793 269.664 143.423 269.664c132.717 0 147.99 -264.907 153.401 -584.937c0.654297 -38.873 1.27539 -75.5947 2.41211 -105.708l1.14746 -30.4688l-60.9365 -2.29492l-1.14746 30.4688
c-0.704102 18.6768 -1.20898 39.6982 -1.64648 62.0947zM130.339 132.182c48.4688 0.12793 102.328 0.283203 140.375 0.0341797c-1.85156 107.814 -4.68457 237.698 -19.7139 341.366c-21.9258 151.188 -57.9658 167.509 -72.4404 167.509
c-13.3828 0 -58.9082 -15.5664 -82.874 -215.917c-11.2373 -93.9717 -14.4639 -201.154 -15.3672 -293.114c15.3779 0.0224609 32.3525 0.0722656 50.0205 0.12207z" />
    <glyph glyph-name="b" unicode="b" horiz-adv-x="324" 
d="M261.545 -16.4854c-24.0547 -17.6846 -57.5928 -23.3613 -90.7217 -23.3721c-57.3447 0 -113.48 16.9971 -117.14 18.1221l-21.1328 6.51367l-0.371094 22.1084c-3.78613 225.131 -4.17969 433.952 -1.23047 657.165l0.249023 18.9932l17.1523 8.14941
c39.2051 18.6328 111.706 17.7734 165.159 -15.8994c44.1562 -27.8184 71.3818 -72.3398 80.9277 -132.312c4.19629 -26.3662 38.6455 -260.944 -42.7979 -375.023c-7.15723 -10.0234 -15.1514 -18.8047 -23.7002 -26.5156
c11.7578 -4.1416 22.6406 -9.71289 32.0488 -17.0693c22.6514 -17.7119 34.5645 -43.4297 34.4482 -74.3691c-0.105469 -27.7627 -11.4814 -50.7529 -32.8916 -66.4912zM91.6367 640.991c-2.05664 -167.97 -2.20605 -328.303 -0.404297 -494.276
c1.84082 0.283203 3.73633 0.571289 5.6709 0.848633c35.0693 7.19531 79.9795 20.6338 105.104 55.8311c54.7998 76.7588 45.0312 249.436 32.209 330.014c-6.75781 42.46 -24.165 71.9971 -53.2139 90.3027c-27.6914 17.4404 -64.707 21.1826 -89.3652 17.2803z
M92.7734 30.8057c50.6367 -12.0469 110.132 -14.7275 132.65 1.83691c4.14648 3.04883 7.98828 7.29492 8.02734 17.5898c0.0605469 15.4336 -5.85449 22.0469 -11.0098 26.0879c-22.1807 17.3633 -72.2354 17.0527 -114.406 11.2646
c-5.69336 -1.15332 -11.0762 -2.15137 -16.0547 -3.04395c0.244141 -17.8174 0.509766 -35.7344 0.792969 -53.7354z" />
    <glyph glyph-name="c" unicode="c" horiz-adv-x="294" 
d="M165.631 -23.1543c-68.9365 0 -115.468 67.0234 -138.38 199.347c-15.7275 90.873 -14.9297 201.271 2.18945 302.899c5.99805 35.6016 40.8125 213.201 137.429 213.234h0.0322266c54.3789 0 93.7227 -51.9395 105.265 -138.96l4.00781 -30.2246l-60.4492 -8.0166
l-4.00781 30.2305c-6.6084 49.833 -25.457 85.9951 -44.8154 85.9951h-0.00585938c-26.6211 -0.0107422 -62.75 -75.8877 -77.3193 -162.387c-16.0215 -95.0977 -16.8359 -198.012 -2.2334 -282.359c16.6309 -96.0508 46.0732 -150.208 80.3945 -148.728
c29.8252 1.31348 52.4492 39.416 59.0352 99.4326l3.32617 30.3076l60.6211 -6.65234l-3.32617 -30.3135c-15.2061 -138.505 -93.373 -152.658 -116.967 -153.7c-1.60742 -0.0722656 -3.20996 -0.105469 -4.7959 -0.105469z" />
    <glyph glyph-name="d" unicode="d" 
d="M32.5938 -17.832l-0.413086 24.7256c-3.78613 225.131 -4.17969 433.952 -1.23047 657.165l0.249023 18.9932l17.1523 8.14941c41.7109 19.8193 113.696 16.7646 161.943 -22.6738c126.309 -103.225 127.04 -460.674 29.498 -599.655
c-13.416 -19.1152 -26.3105 -34.582 -39.4219 -47.2773c-32.8359 -31.793 -68.9814 -47.4814 -109.739 -47.4814c-10.9102 0 -22.1533 1.12012 -33.751 3.35938zM91.6426 641.053c-2.5166 -205.312 -2.17188 -399.177 1.07129 -605.947
c24.0762 0.526367 44.4824 10.2061 65.2441 30.3018c10.3115 9.97852 20.75 22.5742 31.9258 38.4961c85.8887 122.378 74.6797 441.525 -18.1729 517.408c-23.5889 19.2812 -56.8184 23.3945 -80.0684 19.7412z" />
    <glyph glyph-name="e" unicode="e" horiz-adv-x="309" 
d="M226.765 137.304l3.33008 30.3057l60.6211 -6.65234l-3.32617 -30.3135c-15.2061 -138.505 -93.3779 -152.658 -116.972 -153.7c-1.60742 -0.0722656 -3.20996 -0.105469 -4.7959 -0.105469c-68.9365 0 -115.471 67.0234 -138.372 199.358
c-15.7275 90.873 -14.9346 201.271 2.18457 302.894c6.00391 35.6074 40.8242 213.234 137.44 213.234c22.5967 0 43.6299 -9.66797 60.8379 -27.9619c49.2002 -52.3271 68.21 -175.853 56.502 -367.145l0.615234 -31.6543l-30.4854 -0.592773
c-16.5088 -0.316406 -40.9902 -0.427734 -67.4727 -0.427734c-32.0654 0 -67.0684 0.161133 -94.4209 0.277344c-4.92871 0.0224609 -9.57422 0.0449219 -13.9482 0.0615234c1.63574 -27.2363 4.55176 -53.5693 8.83105 -78.2832
c16.6201 -96.0508 46.0518 -150.208 80.3896 -148.728c29.8311 1.31348 52.4551 39.416 59.041 99.4326zM166.863 631.349c-26.6045 0 -62.7285 -75.8818 -77.3086 -162.381c-7.89453 -46.8506 -12.0742 -95.5967 -12.5625 -143.09
c4.87891 -0.0224609 10.1182 -0.0449219 15.7227 -0.0722656c38.7949 -0.171875 93.0127 -0.416016 131.957 -0.183594c10.4502 216.461 -25.124 279.671 -41.3945 296.968c-7.38965 7.84961 -12.9053 8.75879 -16.4141 8.75879z" />
    <glyph glyph-name="e" unicode="&#xeb;" horiz-adv-x="309" 
d="M226.765 137.304l3.33008 30.3057l60.6211 -6.65234l-3.32617 -30.3135c-15.2061 -138.505 -93.3779 -152.658 -116.972 -153.7c-1.60742 -0.0722656 -3.20996 -0.105469 -4.7959 -0.105469c-68.9365 0 -115.471 67.0234 -138.372 199.358
c-15.7275 90.873 -14.9346 201.271 2.18457 302.894c6.00391 35.6074 40.8242 213.234 137.44 213.234c22.5967 0 43.6299 -9.66797 60.8379 -27.9619c49.2002 -52.3271 68.21 -175.853 56.502 -367.145l0.615234 -31.6543l-30.4854 -0.592773
c-16.5088 -0.316406 -40.9902 -0.427734 -67.4727 -0.427734c-32.0654 0 -67.0684 0.161133 -94.4209 0.277344c-4.92871 0.0224609 -9.57422 0.0449219 -13.9482 0.0615234c1.63574 -27.2363 4.55176 -53.5693 8.83105 -78.2832
c16.6201 -96.0508 46.0518 -150.208 80.3896 -148.728c29.8311 1.31348 52.4551 39.416 59.041 99.4326zM166.863 631.349c-26.6045 0 -62.7285 -75.8818 -77.3086 -162.381c-7.89453 -46.8506 -12.0742 -95.5967 -12.5625 -143.09
c4.87891 -0.0224609 10.1182 -0.0449219 15.7227 -0.0722656c38.7949 -0.171875 93.0127 -0.416016 131.957 -0.183594c10.4502 216.461 -25.124 279.671 -41.3945 296.968c-7.38965 7.84961 -12.9053 8.75879 -16.4141 8.75879z" />
    <glyph glyph-name="e" unicode="&#xea;" horiz-adv-x="309" 
d="M226.765 137.304l3.33008 30.3057l60.6211 -6.65234l-3.32617 -30.3135c-15.2061 -138.505 -93.3779 -152.658 -116.972 -153.7c-1.60742 -0.0722656 -3.20996 -0.105469 -4.7959 -0.105469c-68.9365 0 -115.471 67.0234 -138.372 199.358
c-15.7275 90.873 -14.9346 201.271 2.18457 302.894c6.00391 35.6074 40.8242 213.234 137.44 213.234c22.5967 0 43.6299 -9.66797 60.8379 -27.9619c49.2002 -52.3271 68.21 -175.853 56.502 -367.145l0.615234 -31.6543l-30.4854 -0.592773
c-16.5088 -0.316406 -40.9902 -0.427734 -67.4727 -0.427734c-32.0654 0 -67.0684 0.161133 -94.4209 0.277344c-4.92871 0.0224609 -9.57422 0.0449219 -13.9482 0.0615234c1.63574 -27.2363 4.55176 -53.5693 8.83105 -78.2832
c16.6201 -96.0508 46.0518 -150.208 80.3896 -148.728c29.8311 1.31348 52.4551 39.416 59.041 99.4326zM166.863 631.349c-26.6045 0 -62.7285 -75.8818 -77.3086 -162.381c-7.89453 -46.8506 -12.0742 -95.5967 -12.5625 -143.09
c4.87891 -0.0224609 10.1182 -0.0449219 15.7227 -0.0722656c38.7949 -0.171875 93.0127 -0.416016 131.957 -0.183594c10.4502 216.461 -25.124 279.671 -41.3945 296.968c-7.38965 7.84961 -12.9053 8.75879 -16.4141 8.75879z" />
    <glyph glyph-name="e" unicode="&#xe9;" horiz-adv-x="309" 
d="M226.765 137.304l3.33008 30.3057l60.6211 -6.65234l-3.32617 -30.3135c-15.2061 -138.505 -93.3779 -152.658 -116.972 -153.7c-1.60742 -0.0722656 -3.20996 -0.105469 -4.7959 -0.105469c-68.9365 0 -115.471 67.0234 -138.372 199.358
c-15.7275 90.873 -14.9346 201.271 2.18457 302.894c6.00391 35.6074 40.8242 213.234 137.44 213.234c22.5967 0 43.6299 -9.66797 60.8379 -27.9619c49.2002 -52.3271 68.21 -175.853 56.502 -367.145l0.615234 -31.6543l-30.4854 -0.592773
c-16.5088 -0.316406 -40.9902 -0.427734 -67.4727 -0.427734c-32.0654 0 -67.0684 0.161133 -94.4209 0.277344c-4.92871 0.0224609 -9.57422 0.0449219 -13.9482 0.0615234c1.63574 -27.2363 4.55176 -53.5693 8.83105 -78.2832
c16.6201 -96.0508 46.0518 -150.208 80.3896 -148.728c29.8311 1.31348 52.4551 39.416 59.041 99.4326zM166.863 631.349c-26.6045 0 -62.7285 -75.8818 -77.3086 -162.381c-7.89453 -46.8506 -12.0742 -95.5967 -12.5625 -143.09
c4.87891 -0.0224609 10.1182 -0.0449219 15.7227 -0.0722656c38.7949 -0.171875 93.0127 -0.416016 131.957 -0.183594c10.4502 216.461 -25.124 279.671 -41.3945 296.968c-7.38965 7.84961 -12.9053 8.75879 -16.4141 8.75879z" />
    <glyph glyph-name="f" unicode="f" horiz-adv-x="229" 
d="M91.5918 636.484c-2.0127 -168.441 -2.13867 -329.437 -0.353516 -496.037c26.543 -0.277344 64.834 -0.587891 82.1855 0.232422l30.457 1.44141l2.88281 -60.9092l-30.457 -1.44727c-9.45801 -0.443359 -23.6279 -0.592773 -38.9727 -0.592773
c-15.1289 0 -31.3613 0.144531 -45.3701 0.289062c0.349609 -26.1328 0.737305 -52.4209 1.18066 -78.9531l0.509766 -30.4902l-60.9756 -1.01465l-0.504883 30.4854c-0.449219 26.9707 -0.842773 53.6914 -1.19727 80.2461h-0.105469v7.91602
c-2.5 192.712 -2.48926 376.215 0 570.273v39.3379h30.4902c5.69922 0 15.3789 0.0771484 27.1709 0.182617c34.0771 0.283203 85.5674 0.720703 111.518 -0.205078l30.4736 -1.08691l-2.18457 -60.9424l-30.4736 1.0918
c-24.0039 0.853516 -72.7666 0.470703 -106.273 0.182617z" />
    <glyph glyph-name="g" unicode="g" horiz-adv-x="311" 
d="M290.734 393.208c2.54492 -163.18 -0.107422 -327.702 -61.4434 -389.964c-16.9697 -17.2246 -38.125 -26.333 -61.1816 -26.333h-0.0556641c-71.2148 0.0439453 -118.93 67.084 -141.809 199.274c-15.7275 90.8838 -14.9297 201.282 2.18945 302.899
c5.99805 35.6016 40.8125 213.201 137.429 213.234h0.0322266c54.373 0 93.7227 -51.9395 105.265 -138.954l4.01367 -30.2246l-60.4541 -8.02148l-4.00781 30.2246c-6.6084 49.8379 -25.457 86 -44.8154 86h-0.00585938
c-26.6152 -0.0107422 -62.749 -75.8877 -77.3184 -162.387c-16.0215 -95.0918 -16.8359 -198.006 -2.2334 -282.359c9.61328 -55.5205 33.0137 -148.672 81.7598 -148.699h0.0175781c6.80762 0 12.1133 2.43945 17.7402 8.14941
c48.5303 49.2617 45.4033 249.817 43.9014 346.206c-0.09375 6.10938 -0.182617 11.9521 -0.265625 17.5293c-16.332 -0.149414 -30.8506 -0.576172 -54.0957 -1.7793l-30.4521 -1.56934l-3.14355 60.8984l30.4521 1.57422c37.5586 1.94043 53.1084 1.94043 87.1807 1.94043
h30.4902l0.283203 -30.4902c0 -13.333 0.244141 -29.0049 0.527344 -47.1494z" />
    <glyph glyph-name="h" unicode="h" horiz-adv-x="321" 
d="M292.612 -2.70898l0.521484 -30.4805l-60.9756 -1.00879l-0.504883 30.4854c-0.443359 26.582 -0.831055 52.9258 -1.18066 79.1143c-8.64258 -0.0996094 -18.3721 -0.143555 -28.7559 -0.143555c-25.0967 0 -53.8242 0.244141 -79.0869 0.455078
c-11.0596 0.0888672 -21.4873 0.177734 -30.6514 0.238281c0.34375 -26.0332 0.731445 -52.2275 1.16895 -78.6602l0.504883 -30.4854l-60.9756 -1.00879l-0.504883 30.4854c-0.78125 47.2158 -1.40723 93.7002 -1.90039 139.779l-0.00585938 0.277344
c-1.89062 177.045 -1.66309 347.731 0.676758 527.564l0.393555 30.4902l60.9756 -0.797852l-0.393555 -30.4854c-2.33398 -179.362 -2.56152 -349.594 -0.676758 -526.179c9.36328 -0.0605469 20.085 -0.143555 31.8984 -0.243164
c35.5303 -0.310547 77.9736 -0.670898 106.596 -0.321289c-1.89062 177.018 -1.66309 347.692 0.676758 527.537l0.393555 30.4902l60.9756 -0.792969l-0.393555 -30.4854c-2.93848 -226.151 -2.55078 -437.723 1.22461 -665.825z" />
    <glyph glyph-name="i" unicode="i" horiz-adv-x="121" 
d="M92.3164 693.596l-0.387695 -30.4795c-2.93848 -226.218 -2.55078 -437.783 1.22461 -665.825l0.504883 -30.4854l-60.9756 -1.00879l-0.504883 30.4854c-3.78613 228.651 -4.17969 440.794 -1.23047 667.621l0.393555 30.4902z" />
    <glyph glyph-name="i" unicode="&#xef;" horiz-adv-x="121" 
d="M92.3164 693.596l-0.387695 -30.4795c-2.93848 -226.218 -2.55078 -437.783 1.22461 -665.825l0.504883 -30.4854l-60.9756 -1.00879l-0.504883 30.4854c-3.78613 228.651 -4.17969 440.794 -1.23047 667.621l0.393555 30.4902z" />
    <glyph glyph-name="i" unicode="&#xee;" horiz-adv-x="121" 
d="M92.3164 693.596l-0.387695 -30.4795c-2.93848 -226.218 -2.55078 -437.783 1.22461 -665.825l0.504883 -30.4854l-60.9756 -1.00879l-0.504883 30.4854c-3.78613 228.651 -4.17969 440.794 -1.23047 667.621l0.393555 30.4902z" />
    <glyph glyph-name="i" unicode="&#xed;" horiz-adv-x="121" 
d="M92.3164 693.596l-0.387695 -30.4795c-2.93848 -226.218 -2.55078 -437.783 1.22461 -665.825l0.504883 -30.4854l-60.9756 -1.00879l-0.504883 30.4854c-3.78613 228.651 -4.17969 440.794 -1.23047 667.621l0.393555 30.4902z" />
    <glyph glyph-name="j" unicode="j" horiz-adv-x="231" 
d="M85.0439 424.153l-1.46973 -30.4619c-14.7412 -304.534 21.249 -356.014 28.3008 -363.082c5.9209 0.56543 12.7949 3.60352 18.9434 25.4844c7.54492 26.8486 9.61816 68.8311 10.416 123.608c2.03418 139.425 0.387695 251.392 -2.0957 420.869l-0.46582 31.8936
c-29.7256 -0.753906 -69.2744 -2.17285 -81.4268 -3.52539l-30.3018 -3.38184l-6.76367 60.6094l30.3018 3.37598c21.7871 2.43359 99.3604 4.40137 118.148 4.45117l30.1357 0.0830078l1.3418 -92.6084c2.49512 -170.01 4.1416 -282.326 2.10156 -422.649
c-1.4082 -96.6826 -2.99902 -206.276 -90.8174 -209.292c-0.592773 -0.0166016 -1.20801 -0.0332031 -1.83984 -0.0332031c-10.8994 0 -26.2666 3.33203 -40.8076 18.0732c-26.9541 27.3418 -61.0645 99.4883 -46.085 409.078l1.47461 30.457z" />
    <glyph glyph-name="k" unicode="k" horiz-adv-x="282" 
d="M279.913 681.383l-10.6377 -28.5693c-49.0117 -131.575 -122.444 -373.199 -156.832 -489.723c30.6123 11.2764 67.29 16.8643 99.793 -1.08105c41.7666 -23.0615 62.0674 -75.1953 62.0674 -159.388v-30.4902h-60.9814v30.4902
c0 57.4717 -10.8545 95.1191 -30.5684 106.007c-12.3955 6.84668 -38.0635 8.00488 -89.8975 -23.3398c0.376953 -29.1045 0.80957 -58.4092 1.29785 -87.9961l0.504883 -30.4854l-60.9756 -1.00879l-0.504883 30.4854c-3.78613 228.713 -4.17969 440.86 -1.23047 667.621
l0.393555 30.4902l60.9756 -0.797852l-0.393555 -30.4854c-1.58594 -121.885 -2.19531 -239.545 -1.83496 -357.832c39.8037 129.318 90.7451 287.509 121.036 368.818l10.6436 28.5723z" />
    <glyph glyph-name="l" unicode="l" horiz-adv-x="197" 
d="M173.362 -33.499c-4.53516 -0.149414 -10.8877 -0.206055 -18.3271 -0.200195c-17.6406 0 -41.418 0.327148 -61.708 0.610352c-13.4932 0.188477 -24.9189 0.349609 -30.6621 0.349609h-30.4902v35.1914c-3.78613 226.617 -4.17383 436.808 -1.22461 661.456
l0.399414 30.4854l60.9756 -0.797852l-0.399414 -30.4902c-2.83301 -215.923 -2.56738 -418.497 0.831055 -635.207c0.476562 -0.00585938 0.936523 -0.0117188 1.41895 -0.0175781c26.7373 -0.371094 63.3486 -0.886719 77.2188 -0.431641l30.4736 0.986328
l1.96777 -60.9482z" />
    <glyph glyph-name="m" unicode="m" horiz-adv-x="413" 
d="M324.707 39.3398c-3.1709 186.924 -6.17773 364.514 -4.60352 560.768c-17.3076 -32.6416 -38.8564 -95.8564 -57.5391 -218.301c-20.6279 -135.189 -26.5098 -272.037 -26.5654 -273.4l-60.7373 -2.35059c-0.149414 1.23633 -15.1006 125.511 -38.5615 254.042
c-17.5186 95.9902 -33.1738 158.407 -45.9023 198.938c-1.62402 -186.791 -0.842773 -366.68 2.37793 -558.354l0.515625 -30.4902l-60.9756 -1.02539l-0.509766 30.4854c-3.81445 227.193 -4.21875 437.855 -1.25879 662.965l0.366211 28.0186l27.9463 1.99609
c45.3037 3.20996 85.2852 -46.3564 133.217 -298.929c1.95117 -10.2891 3.8584 -20.6055 5.7041 -30.8721c1.27539 9.20801 2.62207 18.4775 4.03613 27.7471c31.3779 205.938 78.417 302.948 148.046 305.31l31.9434 1.08105l-0.420898 -31.96
c-2.92676 -221.949 0.388672 -417.549 3.89746 -624.63l1.18066 -70.1895l-60.9756 -1.02539z" />
    <glyph glyph-name="n" unicode="n" horiz-adv-x="338" 
d="M122.744 358.11c-9.55176 51.5342 -20.7715 112.066 -32.3193 163.706c-1.01465 -174.771 -0.288086 -344.554 2.20703 -524.625l0.420898 -30.4854l-60.9756 -0.842773l-0.420898 30.4854c-3.1709 229.028 -3.49219 441.465 -1.01367 668.553l0.327148 29.8418
l29.8359 0.321289h0.553711c58.4756 0 79.5088 -100.143 121.348 -325.845c15.5723 -84.0205 31.6768 -170.902 49.9209 -239.234c5.0166 -18.7988 9.76172 -34.4824 14.1748 -47.5654c-2.13477 196.581 -2.1123 383.66 0.0390625 581.411l0.333008 30.4902
l60.9814 -0.665039l-0.333008 -30.4854c-2.49512 -229.15 -2.12402 -443.92 1.16309 -675.893l0.4375 -30.9229h-30.9287c-77.5068 0 -108.186 145.174 -155.751 401.755z" />
    <glyph glyph-name="o" unicode="o" horiz-adv-x="325" 
d="M133.422 -14.7275c-30.9785 13.1719 -58.0049 44.7217 -78.1504 91.2451c-19.4697 44.9209 -32.4033 102.57 -36.417 162.32c-10.1895 151.671 8.8252 255.067 26.5762 315.101c24.6699 83.4277 61.0977 132.745 102.576 138.865
c24.6914 3.62012 48.4795 -3.37598 68.8086 -20.2734c79.7412 -66.3027 89.6201 -272.059 90.4854 -295.298c3.80273 -102.094 -7.31836 -202.363 -30.4971 -275.103c-2.65527 -8.31055 -5.44922 -16.3105 -8.31543 -23.7949v-0.00585938
c-10.4883 -27.3584 -22.4346 -49.1787 -35.501 -64.8398c-19.0645 -22.8564 -43.0576 -34.875 -67.7998 -34.875c-10.5605 0 -21.2549 2.18457 -31.7656 6.6582zM103.341 534.718c-22.6572 -77.8672 -31.0635 -181.49 -23.6572 -291.788
c3.55957 -52.9814 14.752 -103.474 31.5215 -142.169c19.0762 -44.0117 38.5684 -56.1807 46.0693 -59.3682c4.67871 -1.99609 14.4414 -6.13184 28.877 11.165c8.63672 10.3506 17.4121 26.8154 25.3838 47.6045c2.45605 6.39746 4.8623 13.2881 7.15723 20.4893
c21.127 66.2861 31.2109 158.988 27.6631 254.318c-3.59766 96.8936 -28.8438 217.67 -68.5312 250.672c-6.90723 5.7373 -12.5947 7.12891 -17.1348 7.12891c-1.36328 0 -2.62695 -0.12793 -3.79102 -0.299805c-5.26074 -1.05371 -31.4434 -21.7764 -53.5576 -97.7529z" />
    <glyph glyph-name="o" unicode="&#xf6;" horiz-adv-x="325" 
d="M133.422 -14.7275c-30.9785 13.1719 -58.0049 44.7217 -78.1504 91.2451c-19.4697 44.9209 -32.4033 102.57 -36.417 162.32c-10.1895 151.671 8.8252 255.067 26.5762 315.101c24.6699 83.4277 61.0977 132.745 102.576 138.865
c24.6914 3.62012 48.4795 -3.37598 68.8086 -20.2734c79.7412 -66.3027 89.6201 -272.059 90.4854 -295.298c3.80273 -102.094 -7.31836 -202.363 -30.4971 -275.103c-2.65527 -8.31055 -5.44922 -16.3105 -8.31543 -23.7949v-0.00585938
c-10.4883 -27.3584 -22.4346 -49.1787 -35.501 -64.8398c-19.0645 -22.8564 -43.0576 -34.875 -67.7998 -34.875c-10.5605 0 -21.2549 2.18457 -31.7656 6.6582zM103.341 534.718c-22.6572 -77.8672 -31.0635 -181.49 -23.6572 -291.788
c3.55957 -52.9814 14.752 -103.474 31.5215 -142.169c19.0762 -44.0117 38.5684 -56.1807 46.0693 -59.3682c4.67871 -1.99609 14.4414 -6.13184 28.877 11.165c8.63672 10.3506 17.4121 26.8154 25.3838 47.6045c2.45605 6.39746 4.8623 13.2881 7.15723 20.4893
c21.127 66.2861 31.2109 158.988 27.6631 254.318c-3.59766 96.8936 -28.8438 217.67 -68.5312 250.672c-6.90723 5.7373 -12.5947 7.12891 -17.1348 7.12891c-1.36328 0 -2.62695 -0.12793 -3.79102 -0.299805c-5.26074 -1.05371 -31.4434 -21.7764 -53.5576 -97.7529z" />
    <glyph glyph-name="o" unicode="&#xf5;" horiz-adv-x="325" 
d="M133.422 -14.7275c-30.9785 13.1719 -58.0049 44.7217 -78.1504 91.2451c-19.4697 44.9209 -32.4033 102.57 -36.417 162.32c-10.1895 151.671 8.8252 255.067 26.5762 315.101c24.6699 83.4277 61.0977 132.745 102.576 138.865
c24.6914 3.62012 48.4795 -3.37598 68.8086 -20.2734c79.7412 -66.3027 89.6201 -272.059 90.4854 -295.298c3.80273 -102.094 -7.31836 -202.363 -30.4971 -275.103c-2.65527 -8.31055 -5.44922 -16.3105 -8.31543 -23.7949v-0.00585938
c-10.4883 -27.3584 -22.4346 -49.1787 -35.501 -64.8398c-19.0645 -22.8564 -43.0576 -34.875 -67.7998 -34.875c-10.5605 0 -21.2549 2.18457 -31.7656 6.6582zM103.341 534.718c-22.6572 -77.8672 -31.0635 -181.49 -23.6572 -291.788
c3.55957 -52.9814 14.752 -103.474 31.5215 -142.169c19.0762 -44.0117 38.5684 -56.1807 46.0693 -59.3682c4.67871 -1.99609 14.4414 -6.13184 28.877 11.165c8.63672 10.3506 17.4121 26.8154 25.3838 47.6045c2.45605 6.39746 4.8623 13.2881 7.15723 20.4893
c21.127 66.2861 31.2109 158.988 27.6631 254.318c-3.59766 96.8936 -28.8438 217.67 -68.5312 250.672c-6.90723 5.7373 -12.5947 7.12891 -17.1348 7.12891c-1.36328 0 -2.62695 -0.12793 -3.79102 -0.299805c-5.26074 -1.05371 -31.4434 -21.7764 -53.5576 -97.7529z" />
    <glyph glyph-name="o" unicode="&#xf4;" horiz-adv-x="325" 
d="M133.422 -14.7275c-30.9785 13.1719 -58.0049 44.7217 -78.1504 91.2451c-19.4697 44.9209 -32.4033 102.57 -36.417 162.32c-10.1895 151.671 8.8252 255.067 26.5762 315.101c24.6699 83.4277 61.0977 132.745 102.576 138.865
c24.6914 3.62012 48.4795 -3.37598 68.8086 -20.2734c79.7412 -66.3027 89.6201 -272.059 90.4854 -295.298c3.80273 -102.094 -7.31836 -202.363 -30.4971 -275.103c-2.65527 -8.31055 -5.44922 -16.3105 -8.31543 -23.7949v-0.00585938
c-10.4883 -27.3584 -22.4346 -49.1787 -35.501 -64.8398c-19.0645 -22.8564 -43.0576 -34.875 -67.7998 -34.875c-10.5605 0 -21.2549 2.18457 -31.7656 6.6582zM103.341 534.718c-22.6572 -77.8672 -31.0635 -181.49 -23.6572 -291.788
c3.55957 -52.9814 14.752 -103.474 31.5215 -142.169c19.0762 -44.0117 38.5684 -56.1807 46.0693 -59.3682c4.67871 -1.99609 14.4414 -6.13184 28.877 11.165c8.63672 10.3506 17.4121 26.8154 25.3838 47.6045c2.45605 6.39746 4.8623 13.2881 7.15723 20.4893
c21.127 66.2861 31.2109 158.988 27.6631 254.318c-3.59766 96.8936 -28.8438 217.67 -68.5312 250.672c-6.90723 5.7373 -12.5947 7.12891 -17.1348 7.12891c-1.36328 0 -2.62695 -0.12793 -3.79102 -0.299805c-5.26074 -1.05371 -31.4434 -21.7764 -53.5576 -97.7529z" />
    <glyph glyph-name="o" unicode="&#xf3;" horiz-adv-x="325" 
d="M133.422 -14.7275c-30.9785 13.1719 -58.0049 44.7217 -78.1504 91.2451c-19.4697 44.9209 -32.4033 102.57 -36.417 162.32c-10.1895 151.671 8.8252 255.067 26.5762 315.101c24.6699 83.4277 61.0977 132.745 102.576 138.865
c24.6914 3.62012 48.4795 -3.37598 68.8086 -20.2734c79.7412 -66.3027 89.6201 -272.059 90.4854 -295.298c3.80273 -102.094 -7.31836 -202.363 -30.4971 -275.103c-2.65527 -8.31055 -5.44922 -16.3105 -8.31543 -23.7949v-0.00585938
c-10.4883 -27.3584 -22.4346 -49.1787 -35.501 -64.8398c-19.0645 -22.8564 -43.0576 -34.875 -67.7998 -34.875c-10.5605 0 -21.2549 2.18457 -31.7656 6.6582zM103.341 534.718c-22.6572 -77.8672 -31.0635 -181.49 -23.6572 -291.788
c3.55957 -52.9814 14.752 -103.474 31.5215 -142.169c19.0762 -44.0117 38.5684 -56.1807 46.0693 -59.3682c4.67871 -1.99609 14.4414 -6.13184 28.877 11.165c8.63672 10.3506 17.4121 26.8154 25.3838 47.6045c2.45605 6.39746 4.8623 13.2881 7.15723 20.4893
c21.127 66.2861 31.2109 158.988 27.6631 254.318c-3.59766 96.8936 -28.8438 217.67 -68.5312 250.672c-6.90723 5.7373 -12.5947 7.12891 -17.1348 7.12891c-1.36328 0 -2.62695 -0.12793 -3.79102 -0.299805c-5.26074 -1.05371 -31.4434 -21.7764 -53.5576 -97.7529z" />
    <glyph glyph-name="p" unicode="p" horiz-adv-x="299" 
d="M285.166 468.343c10.8711 -107.216 -8.41992 -254.842 -76.4805 -325.607c-38.3125 -39.8369 -84.4922 -51.4121 -116.014 -57.4434c0.299805 -25.6338 0.632812 -51.4229 1.00391 -77.4395l0.4375 -30.4902l-60.9756 -0.870117l-0.4375 30.4854
c-0.598633 42.0654 -1.10352 83.5605 -1.50293 124.695l-0.704102 3.39258l0.670898 0.138672c-1.71289 178.58 -1.53027 350.397 0.526367 531.755l0.232422 20.4453l19.0039 7.54492c35.7236 14.2139 97.3867 11.8799 138.727 -16.582
c69.4131 -47.7705 89.6367 -152.093 95.5127 -210.024zM92.0342 147.414c23.5391 5.27246 50.5322 14.542 72.6963 37.5928c45.3203 47.1221 71.0098 166.285 59.7617 277.188c-8.06641 79.5469 -34.0166 141.581 -69.4131 165.945
c-17.5684 12.0908 -43.1475 15.6719 -62.6729 14.0752c-1.75781 -168.191 -1.89062 -328.699 -0.37207 -494.801z" />
    <glyph glyph-name="q" unicode="q" horiz-adv-x="325" 
d="M232.993 13.4844c-7.08496 -8.4873 -14.8525 -15.4688 -23.085 -20.9072c18.7324 -52.0889 36.4111 -106.462 52.5215 -162.237l8.45996 -29.293l-58.5859 -16.9199l-8.45996 29.2871c-16.5977 57.4883 -34.875 113.464 -54.2832 166.806
c-5.39941 1.10352 -10.7939 2.77246 -16.1377 5.04492c-30.9678 13.1719 -57.9932 44.7217 -78.1553 91.2451c-19.4639 44.9268 -32.3975 102.576 -36.4111 162.321c-10.1895 151.671 8.8252 255.067 26.5762 315.101c24.6699 83.4277 61.0977 132.745 102.576 138.865
c24.6914 3.62012 48.4795 -3.37598 68.8086 -20.2734c79.7412 -66.3027 89.6201 -272.059 90.4854 -295.298c3.79785 -102.104 -7.32324 -202.374 -30.502 -275.103c-2.64453 -8.30469 -5.44434 -16.3154 -8.31641 -23.8047
c-10.4834 -27.3477 -22.4248 -49.1621 -35.4912 -64.834zM211.549 100.159c2.4502 6.3916 4.85742 13.29 7.14746 20.4805c21.127 66.2861 31.2109 158.988 27.6689 254.329c-3.59766 96.8936 -28.8438 217.67 -68.5312 250.672
c-6.90723 5.7373 -12.5947 7.12891 -17.1348 7.12891c-1.36328 0 -2.62695 -0.12793 -3.79102 -0.299805c-5.26074 -1.05371 -31.4434 -21.7764 -53.5576 -97.7529c-22.6631 -77.8672 -31.0615 -181.496 -23.6494 -291.794
c3.55957 -52.9814 14.7578 -103.469 31.5225 -142.17c19.0762 -44.0117 38.5684 -56.1807 46.0693 -59.3682c4.68457 -2.00098 14.4414 -6.14258 28.877 11.165c8.63672 10.3555 17.4121 26.8203 25.3789 47.5986v0.0107422z" />
    <glyph glyph-name="r" unicode="r" horiz-adv-x="302" 
d="M155.997 104.884c34.8311 -26.46 68.9932 -57.5049 91.6611 -81.9912l20.7109 -22.375l-44.749 -41.4287l-20.7109 22.375c-26.9199 29.082 -71.2588 67.7549 -110.109 93.7324c0.265625 -22.3135 0.548828 -44.7324 0.875977 -67.3457l0.4375 -30.4902
l-60.9756 -0.870117l-0.4375 30.4854c-0.598633 42.0713 -1.10352 83.5605 -1.50293 124.695l-0.704102 3.39258l0.670898 0.138672c-1.71289 178.647 -1.53027 350.465 0.526367 531.756l0.232422 20.4453l19.0039 7.54492
c35.7236 14.2031 97.3867 11.8799 138.727 -16.582c69.4131 -47.7705 89.6367 -152.093 95.5127 -210.024c10.877 -107.21 -8.4209 -254.834 -76.4756 -325.605c-16.6924 -17.3574 -34.876 -29.3428 -52.6934 -37.8525zM92.4121 642.211
c-1.7627 -168.119 -1.88965 -328.657 -0.371094 -494.803c23.5391 5.27246 50.5312 14.5361 72.7002 37.5928c45.3203 47.1221 71.0098 166.285 59.7617 277.188c-8.06641 79.5469 -34.0166 141.576 -69.4189 165.946c-17.5684 12.0967 -43.1582 15.7002 -62.6719 14.0762z
" />
    <glyph glyph-name="s" unicode="s" horiz-adv-x="306" 
d="M285.899 48.7031c-22.6182 -49.8877 -69.2354 -79.1328 -120.897 -79.1162c-13.3271 0 -26.9922 1.94629 -40.6689 5.9873c-37.5479 11.0986 -105.514 66.6914 -94.0439 197.651l2.66113 30.374l60.748 -5.32227l-2.66113 -30.374
c-8.28223 -94.6094 34.8311 -129.202 50.5859 -133.859c36.6992 -10.8711 73.1934 5.53809 88.7383 39.8369c8.03809 17.7236 11.3037 38.4521 8.98047 56.8682c-8.65918 68.5205 -55.1934 114.34 -104.466 162.854c-67.0234 65.9814 -142.983 140.777 -118.009 279.071
c6.3916 35.3916 29.7305 83.0957 67.4727 109.866c28.3115 20.0908 63.6533 24.2432 94.5371 11.1211c29.3379 -12.4619 67.0801 -45.6523 80.2852 -132.994l4.55664 -30.1465l-60.2939 -9.11914l-4.55664 30.1465c-6.91895 45.7471 -22.8965 77.0967 -43.8408 85.9893
c-16.6807 7.0791 -31.3164 -1.83496 -35.4023 -4.72852c-22.3027 -15.8271 -38.6738 -48.3799 -42.7539 -70.9766c-19.2529 -106.601 36.373 -161.367 100.78 -224.782c54.5117 -53.6689 110.875 -109.156 122.185 -198.66
c3.75879 -29.7256 -1.19141 -61.5801 -13.9365 -89.6865z" />
    <glyph glyph-name="t" unicode="t" horiz-adv-x="261" 
d="M161.045 -2.70312l0.511719 -30.4746l-60.9756 -1.02539l-0.509766 30.4854c-3.68066 218.828 -4.14648 422.283 -1.46289 638.467c-10.8994 0.22168 -22.3643 0.470703 -34.4111 0.731445c-20.8828 0.455078 -37.375 0.81543 -41.7051 0.81543h-30.4902v60.9814h30.4902
c4.99512 0 20.1299 -0.327148 43.042 -0.832031c46.2295 -1.00879 154.493 -3.39258 168.402 -1.90137l30.2852 3.2207l6.56934 -60.5654l-30.2803 -3.28223c-5.05078 -0.548828 -15.5449 -0.797852 -31.1953 -0.797852c-13.0391 0 -29.6816 0.171875 -49.7334 0.482422
c-2.66699 -215.44 -2.20117 -418.22 1.46289 -636.305z" />
    <glyph glyph-name="u" unicode="u" horiz-adv-x="362" 
d="M331.765 663.942c-2.95996 -223.851 -2.55664 -441.908 1.21875 -666.651l0.515625 -30.4854l-60.9756 -1.03125l-0.509766 30.4854c-0.105469 6.48047 -0.182617 12.9053 -0.288086 19.375c-29.4092 -38.3789 -65.2822 -46.1348 -101.461 -46.1348h-1.05859
c-25.5234 0 -49.1338 10.7441 -68.293 31.0674c-69.6797 73.915 -92.8799 290.726 -70.9268 662.805l2.62207 46.4678l60.8867 -3.38184l-2.63281 -46.6729c-27.042 -458.262 22.4912 -583.512 54.4229 -617.384c10.0674 -10.6719 18.4717 -11.9082 23.9209 -11.9082
h0.986328c29.7812 0.116211 71.1152 -0.0224609 94.7539 147.408l4.5459 28.3398c-1.14746 152.785 -0.737305 304.29 1.29688 458.506l0.404297 30.4902l60.9756 -0.80957z" />
    <glyph glyph-name="u" unicode="&#xfc;" horiz-adv-x="362" 
d="M331.765 663.942c-2.95996 -223.851 -2.55664 -441.908 1.21875 -666.651l0.515625 -30.4854l-60.9756 -1.03125l-0.509766 30.4854c-0.105469 6.48047 -0.182617 12.9053 -0.288086 19.375c-29.4092 -38.3789 -65.2822 -46.1348 -101.461 -46.1348h-1.05859
c-25.5234 0 -49.1338 10.7441 -68.293 31.0674c-69.6797 73.915 -92.8799 290.726 -70.9268 662.805l2.62207 46.4678l60.8867 -3.38184l-2.63281 -46.6729c-27.042 -458.262 22.4912 -583.512 54.4229 -617.384c10.0674 -10.6719 18.4717 -11.9082 23.9209 -11.9082
h0.986328c29.7812 0.116211 71.1152 -0.0224609 94.7539 147.408l4.5459 28.3398c-1.14746 152.785 -0.737305 304.29 1.29688 458.506l0.404297 30.4902l60.9756 -0.80957z" />
    <glyph glyph-name="u" unicode="&#xfb;" horiz-adv-x="362" 
d="M331.765 663.942c-2.95996 -223.851 -2.55664 -441.908 1.21875 -666.651l0.515625 -30.4854l-60.9756 -1.03125l-0.509766 30.4854c-0.105469 6.48047 -0.182617 12.9053 -0.288086 19.375c-29.4092 -38.3789 -65.2822 -46.1348 -101.461 -46.1348h-1.05859
c-25.5234 0 -49.1338 10.7441 -68.293 31.0674c-69.6797 73.915 -92.8799 290.726 -70.9268 662.805l2.62207 46.4678l60.8867 -3.38184l-2.63281 -46.6729c-27.042 -458.262 22.4912 -583.512 54.4229 -617.384c10.0674 -10.6719 18.4717 -11.9082 23.9209 -11.9082
h0.986328c29.7812 0.116211 71.1152 -0.0224609 94.7539 147.408l4.5459 28.3398c-1.14746 152.785 -0.737305 304.29 1.29688 458.506l0.404297 30.4902l60.9756 -0.80957z" />
    <glyph glyph-name="u" unicode="&#xfa;" horiz-adv-x="362" 
d="M331.765 663.942c-2.95996 -223.851 -2.55664 -441.908 1.21875 -666.651l0.515625 -30.4854l-60.9756 -1.03125l-0.509766 30.4854c-0.105469 6.48047 -0.182617 12.9053 -0.288086 19.375c-29.4092 -38.3789 -65.2822 -46.1348 -101.461 -46.1348h-1.05859
c-25.5234 0 -49.1338 10.7441 -68.293 31.0674c-69.6797 73.915 -92.8799 290.726 -70.9268 662.805l2.62207 46.4678l60.8867 -3.38184l-2.63281 -46.6729c-27.042 -458.262 22.4912 -583.512 54.4229 -617.384c10.0674 -10.6719 18.4717 -11.9082 23.9209 -11.9082
h0.986328c29.7812 0.116211 71.1152 -0.0224609 94.7539 147.408l4.5459 28.3398c-1.14746 152.785 -0.737305 304.29 1.29688 458.506l0.404297 30.4902l60.9756 -0.80957z" />
    <glyph glyph-name="v" unicode="v" horiz-adv-x="401" 
d="M403.99 712.178l-4.80664 -30.1123c-34.3486 -214.881 -149.896 -677.251 -151.055 -681.896l-5.7207 -22.835l-53.3975 -0.56543l-6.09277 22.9014c-1.35254 5.07227 -135.583 509.475 -181.89 679.19l-8.02734 29.415l58.8301 16.0547l8.02148 -29.4209
c33.3955 -122.389 112.422 -418.485 154.51 -576.388c36.123 149.182 100.607 423.064 124.601 573.172l4.81152 30.1084z" />
    <glyph glyph-name="w" unicode="w" horiz-adv-x="499" 
d="M431.15 689.914l3.02539 30.3516l60.6758 -6.06445l-3.03223 -30.3408c-21.665 -216.865 -97.4814 -646.927 -106.052 -695.252l-4.31348 -24.3037l-52.333 -1.78516l-83.5215 500.167c-5.9873 -41.3115 -12.3457 -85.6729 -18.4551 -128.249
c-31.998 -223.146 -47.665 -330.196 -53.0928 -347.786l-7.15137 -23.1787l-49.7773 3.60352l-3.99121 23.5938c-8.7373 51.6016 -85.917 509.193 -105.675 682.258l-3.45898 30.2969l60.5879 6.91895l3.45898 -30.2969c12.5566 -109.966 48.6963 -336.999 75.3066 -499.275
c7.63965 52.4102 15.8779 109.838 23.4336 162.515c29.709 207.175 43.2139 299.528 47.8096 314.425l6.61328 21.4268l50.082 0.155273l84.3926 -505.356c26.1777 156.45 61.9795 381.193 75.4678 516.178z" />
    <glyph glyph-name="x" unicode="x" horiz-adv-x="307" 
d="M185.56 319.665c58.6084 -172.859 109.94 -314.827 110.806 -317.211l10.3838 -28.6719l-57.3389 -20.7617l-10.3838 28.667c-0.737305 2.04004 -38.2021 105.652 -85.6514 243.569c-47.4492 -137.917 -84.9141 -241.529 -85.6514 -243.569l-10.3838 -28.667
l-57.3389 20.7617l10.3838 28.6719c0.865234 2.38379 52.1943 144.359 110.803 317.213c-38.6787 114.572 -79.8018 240.648 -111.385 348.119l-8.59863 29.249l58.5088 17.1963l8.59863 -29.249c24.4531 -83.2119 54.6943 -177.728 85.0625 -269.344
c30.3682 91.6162 60.6094 186.137 85.0625 269.343l8.59863 29.2539l58.5088 -17.2021l-8.59863 -29.249c-31.583 -107.471 -72.7012 -233.547 -111.386 -348.119z" />
    <glyph glyph-name="y" unicode="y" horiz-adv-x="308" 
d="M276 -30.4893h-60.9648v30.4902c0 41.7393 0.265625 95.4521 0.586914 157.437c-20.3789 -53.9072 -46.3623 -78.2607 -79.209 -78.2607c-12.0635 0 -30.0029 3.67578 -46.9561 21.1992c-77.2129 79.8135 -74.2197 430.993 -69.3467 578.269l1.00879 30.4736
l60.9482 -2.0127l-1.00879 -30.4736c-1.21387 -36.7158 -4.56738 -166.384 3.26562 -293.308c13.2666 -214.997 47.6768 -240.659 51.8789 -242.993c4.36816 2.70508 35.8682 28.5166 57.8994 216.383c13.8652 118.242 18.3887 251.281 20.5615 315.212l0.426758 12.3457
l-0.515625 29.7812l1.54688 0.0273438l0.0556641 1.54688l29.6865 -1.03711l29.6816 0.509766l0.0273438 -1.54688l1.54688 -0.0556641l-1.03711 -29.8086c2.4834 -145.712 1.42969 -348.707 0.576172 -511.903c-0.354492 -68.1104 -0.65918 -126.94 -0.65918 -171.784
v-30.4902z" />
    <glyph glyph-name="y" unicode="&#xff;" horiz-adv-x="308" 
d="M276 -30.4893h-60.9648v30.4902c0 41.7393 0.265625 95.4521 0.586914 157.437c-20.3789 -53.9072 -46.3623 -78.2607 -79.209 -78.2607c-12.0635 0 -30.0029 3.67578 -46.9561 21.1992c-77.2129 79.8135 -74.2197 430.993 -69.3467 578.269l1.00879 30.4736
l60.9482 -2.0127l-1.00879 -30.4736c-1.21387 -36.7158 -4.56738 -166.384 3.26562 -293.308c13.2666 -214.997 47.6768 -240.659 51.8789 -242.993c4.36816 2.70508 35.8682 28.5166 57.8994 216.383c13.8652 118.242 18.3887 251.281 20.5615 315.212l0.426758 12.3457
l-0.515625 29.7812l1.54688 0.0273438l0.0556641 1.54688l29.6865 -1.03711l29.6816 0.509766l0.0273438 -1.54688l1.54688 -0.0556641l-1.03711 -29.8086c2.4834 -145.712 1.42969 -348.707 0.576172 -511.903c-0.354492 -68.1104 -0.65918 -126.94 -0.65918 -171.784
v-30.4902z" />
    <glyph glyph-name="y" unicode="&#xfd;" horiz-adv-x="308" 
d="M276 -30.4893h-60.9648v30.4902c0 41.7393 0.265625 95.4521 0.586914 157.437c-20.3789 -53.9072 -46.3623 -78.2607 -79.209 -78.2607c-12.0635 0 -30.0029 3.67578 -46.9561 21.1992c-77.2129 79.8135 -74.2197 430.993 -69.3467 578.269l1.00879 30.4736
l60.9482 -2.0127l-1.00879 -30.4736c-1.21387 -36.7158 -4.56738 -166.384 3.26562 -293.308c13.2666 -214.997 47.6768 -240.659 51.8789 -242.993c4.36816 2.70508 35.8682 28.5166 57.8994 216.383c13.8652 118.242 18.3887 251.281 20.5615 315.212l0.426758 12.3457
l-0.515625 29.7812l1.54688 0.0273438l0.0556641 1.54688l29.6865 -1.03711l29.6816 0.509766l0.0273438 -1.54688l1.54688 -0.0556641l-1.03711 -29.8086c2.4834 -145.712 1.42969 -348.707 0.576172 -511.903c-0.354492 -68.1104 -0.65918 -126.94 -0.65918 -171.784
v-30.4902z" />
    <glyph glyph-name="z" unicode="z" horiz-adv-x="284" 
d="M205.685 -25.1172c-31.0391 0 -81.0166 0.487305 -131.221 1.01367c-20.7334 0.21582 -38.6172 0.487305 -41.7324 0.371094l-42.7314 -0.376953l14.3418 42.9531c1.28027 3.8418 120.892 363.536 202.623 635.035
c-27.4414 -0.376953 -62.7666 -0.936523 -93.5957 -1.42969c-40.5244 -0.648438 -72.5342 -1.1582 -80.0791 -1.1582h-30.4902v60.9814h30.4902c7.05762 0 42.0557 0.55957 79.1104 1.14746c54.6221 0.870117 116.529 1.8623 135.628 1.8623h40.8467l-11.6143 -39.1553
c-67.04 -226.085 -167.897 -533.773 -202.712 -639.249c0.182617 0 0.365234 -0.00585938 0.547852 -0.00585938c49.5273 -0.509766 141.714 -1.49121 156.105 -0.753906l30.4521 1.54102l3.08203 -60.9033l-30.4521 -1.54102
c-4.62891 -0.232422 -14.7236 -0.332031 -28.5996 -0.332031z" />
    <glyph glyph-name="braceleft" unicode="{" horiz-adv-x="416" 
d="M314.304 -172.456l51.6152 -32.4854l-16.2432 -25.8008c-11.6699 -18.5322 -28.7725 -29.248 -48.1758 -30.1514c-0.870117 -0.0439453 -1.74023 -0.0664062 -2.60547 -0.0664062c-19.6973 0 -38.9287 10.4277 -53.1377 28.9102
c-16.7529 21.7871 -28.7881 54.9336 -36.793 101.323c-13.3438 77.3242 -14.4521 158.739 -15.5225 237.472c-0.532227 38.7393 -1.0752 78.7979 -3.08203 117.621c-2.82715 54.5889 -50.3477 77.6836 -78.4268 86.5811l-61.9346 19.6416l54.6836 35.0859
c28.6113 18.3555 74.0479 69.3916 81.3652 113.636c8.10449 49.0508 8.86426 102.759 9.60156 154.698l0.277344 18.9814c0.931641 57.6719 3.18262 124.113 18.2783 182.694c8.27148 32.0928 19.0371 54.7832 32.9189 69.3633
c12.6338 13.2666 29.1934 20.0967 45.5137 18.6113c15.9824 -1.41406 30.1748 -10.3281 39.96 -25.1074l16.8311 -25.4287l-50.8525 -33.6562l-11.6475 17.6016c-3.77539 -6.25879 -8.7041 -17.3076 -13.6709 -36.5947
c-13.4268 -52.1279 -15.4834 -114.296 -16.3535 -168.47l-0.283203 -18.8545c-0.764648 -54.1846 -1.55176 -110.221 -10.4111 -163.79c-7.50586 -45.4033 -37.9746 -90.1416 -68.8086 -121.652c34.3379 -21.0332 70.627 -57.8662 73.8535 -120.194
c2.06738 -39.9873 2.61621 -80.6338 3.1543 -119.944c1.08691 -79.8857 2.1123 -155.336 14.6416 -227.926c7.7168 -44.71 17.8789 -65.2051 25.0469 -74.5293c1.4248 -1.85156 2.67773 -3.06543 3.64746 -3.85254c0.0996094 0.144531 0.205078 0.310547 0.316406 0.482422z
" />
    <glyph glyph-name="verticalbar" unicode="|" horiz-adv-x="171" 
d="M120.66 -126.798l0.458984 -30.4912l-60.9756 -0.915039l-0.459961 30.4854c-1.83496 121.979 -3.30371 322.534 -4.60059 499.479c-1.38574 188.858 -2.68848 367.245 -4.17969 417.499l-0.90332 30.4795l60.9531 1.80176l0.90332 -30.4736
c1.51367 -50.9355 2.82227 -229.654 4.20801 -418.862c1.29199 -176.834 2.76074 -377.263 4.5957 -499.003z" />
    <glyph glyph-name="braceright" unicode="}" horiz-adv-x="416" 
d="M311.227 365.68l54.6865 -35.083l-61.9287 -19.6416c-28.0791 -8.89746 -75.5996 -31.9873 -78.4268 -86.582c-2.0127 -38.8232 -2.55566 -78.8877 -3.08203 -117.622c-1.07031 -78.7324 -2.17871 -160.147 -15.5225 -237.472
c-8.00488 -46.3896 -20.04 -79.5303 -36.793 -101.328c-14.2031 -18.4775 -33.4453 -28.8994 -53.1367 -28.9053c-0.870117 0 -1.73535 0.0224609 -2.60547 0.0664062c-19.3975 0.90332 -36.5059 11.6143 -48.1758 30.1523l-16.2432 25.8008l51.6123 32.4805
l16.2432 -25.8008c0.111328 -0.171875 0.216797 -0.337891 0.316406 -0.482422c0.969727 0.78125 2.22266 1.99512 3.6416 3.84668c7.17383 9.32422 17.3359 29.8252 25.0527 74.5352c12.5293 72.584 13.5547 148.04 14.6416 227.926
c0.532227 39.3105 1.08691 79.957 3.1543 119.944c3.22656 62.334 39.5156 99.1611 73.8535 120.199c-30.834 31.5049 -61.3027 76.248 -68.8086 121.646c-8.85938 53.5859 -9.65234 109.639 -10.417 163.834l-0.277344 18.8154
c-0.875977 54.1846 -2.93262 116.357 -16.3594 168.469c-4.96191 19.2705 -9.88477 30.3076 -13.6543 36.5723l-11.3643 -17.1748l-51.1523 33.251l16.8311 25.4287c9.78516 14.7793 23.9775 23.6934 39.96 25.1074c16.3154 1.48047 32.8799 -5.33301 45.5137 -18.6104
c13.8818 -14.5801 24.6475 -37.2705 32.9189 -69.3633c15.0898 -58.5693 17.3457 -125.017 18.2773 -182.693l0.277344 -18.9375c0.731445 -51.9502 1.48535 -105.669 9.60156 -154.742c7.31738 -44.2441 52.7539 -95.2744 81.3652 -113.636z" />
    <glyph glyph-name="nonbreakingspace" unicode="&#xa0;" horiz-adv-x="189" 
 />
    <glyph glyph-name="exclamdown" unicode="&#xa1;" horiz-adv-x="169" 
d="M117.455 -52.4072l1.19141 -30.4619l-60.9365 -2.37793l-1.18652 30.4629c-6.94629 177.776 -8.27637 358.197 -3.95801 536.245l0.737305 30.4795l60.9648 -1.48047l-0.737305 -30.4854c-4.28516 -176.762 -2.96582 -355.88 3.9248 -532.382zM51.9883 635.904
l-1.25684 30.4619c-1.25879 30.2744 -0.881836 60.9316 1.1084 91.1064l2.0127 30.4238l60.8477 -4.01953l-2.00684 -30.4238c-1.85156 -28.0068 -2.20117 -56.457 -1.03711 -84.5635l1.26367 -30.4629z" />
    <glyph glyph-name="cent" unicode="&#xa2;" horiz-adv-x="368" 
d="M259.33 164.281l58.8945 -15.79l-7.88867 -29.4541c-20.2842 -75.75 -57.1504 -124.796 -99.0059 -135.495c0.177734 -18.333 0.366211 -36.7324 0.56543 -55.2207l0.333008 -30.4902l-60.9756 -0.660156l-0.333008 30.4902
c-0.249023 22.7178 -0.470703 45.2812 -0.686523 67.7725c-58.7969 39.6875 -82.6016 151.15 -88.9883 188.033c-15.7217 90.8789 -14.9238 201.277 2.18945 302.899c11.1377 66.0703 27.1152 118.209 47.4883 154.97c11.8467 21.3711 24.791 36.2842 37.9131 46.1299
c0.265625 47.083 0.592773 94.4482 0.99707 142.341l0.260742 30.4902l60.9814 -0.521484l-0.254883 -30.4902c-0.366211 -43.1357 -0.670898 -85.8447 -0.919922 -128.315c4.17969 -1.15332 8.17676 -2.70508 11.9463 -4.58984
c19.3867 -9.69043 35.7412 -29.1543 47.2939 -56.2969c12.9561 -30.4404 21.416 -74.1357 25.1523 -129.895l2.04004 -30.4189l-60.8477 -4.07422l-2.04004 30.4238c-3.23242 48.2246 -10.2949 86.2881 -20.418 110.076c-1.1582 2.7168 -2.33301 5.12305 -3.51953 7.38477
c-0.803711 -190.943 -0.410156 -377.795 1.20898 -571.382c13.0996 12.6953 28.9326 38.6064 40.7246 82.6289zM121.339 193.878c7.04102 -40.6582 17.2119 -72.9707 28.0391 -97.2246c-1.19727 161.755 -1.53027 319.357 -1.02539 479.206
c-9.82324 -27.1367 -18.2383 -60.8096 -24.7803 -99.6162c-16.0156 -95.0918 -16.8301 -198.012 -2.2334 -282.365z" />
    <glyph glyph-name="sterling" unicode="&#xa3;" horiz-adv-x="397" 
d="M282.727 32.4951l30.3496 2.73535l5.49902 -60.7314l-30.3682 -2.75c-19.3809 -1.75195 -50.7637 -2.25684 -80.3066 -2.25684c-37.9688 0 -72.9111 0.826172 -75.4609 0.892578l-32.1094 0.776367l2.4502 32.0264c0.171875 2.26172 13.832 180.609 25.3965 310.776
c-13.1445 -0.953125 -26.4824 -2.2998 -40.2139 -4.05176l-30.2471 -3.85254l-7.7168 60.4873l30.2471 3.8584c18.2061 2.32324 35.9736 3.91406 53.5977 4.93945c0.919922 9.50781 1.80664 18.3613 2.64355 26.3496c7.45117 71.1816 15.1572 144.786 32.0439 211.366
c14.9844 59.085 34.332 91.915 60.8975 103.318c24.5254 10.5557 62.0566 3.4375 87.0586 -51.1904c11.9805 -26.1719 20.4072 -60.0771 26.5215 -106.711l3.96387 -30.2305l-60.4658 -7.92773l-3.96387 30.2305c-5.22266 39.8701 -12.2637 69.0635 -21.5049 89.2598
c-3.91406 8.54297 -7.73926 13.9199 -10.5059 17.0137c-4.70117 -6.26953 -13.5654 -21.9639 -22.8955 -58.7461c-15.7998 -62.3174 -23.2725 -133.698 -30.4961 -202.724c-0.615234 -5.9043 -1.26367 -12.291 -1.92871 -19.0596
c18.2061 -0.499023 36.5117 -1.61328 55.2275 -3.49219l30.3408 -3.04883l-6.09277 -60.6709l-30.335 3.04395c-18.7881 1.89062 -36.8828 2.98828 -54.8057 3.38184c-8.72559 -97.5146 -18.8594 -225.708 -23.4551 -284.721
c35.1475 -0.454102 89.9863 -0.708984 116.635 1.70801z" />
    <glyph glyph-name="currency" unicode="&#xa4;" horiz-adv-x="530" 
d="M399.699 225.867c18.9434 -28.3232 37.9297 -56.8047 57.0889 -85.749l16.8311 -25.4238l-50.8525 -33.6562l-16.8252 25.4287c-12.7227 19.2197 -25.3682 38.2461 -37.9854 57.1777c-8.0332 -11.0488 -16.665 -20.3457 -25.8232 -27.6914
c-18.7598 -15.0508 -40.4912 -22.79 -63.0879 -22.79c-9.4248 0 -18.9873 1.3418 -28.5615 4.06348c-30.8506 8.78125 -58.292 30.6289 -79.3633 63.1709c-0.34375 0.532227 -0.648438 1.11426 -0.986328 1.65234c-17.4902 -23.6943 -35.125 -47.4932 -53.0088 -71.5088
l-18.2109 -24.4531l-48.9121 36.4219l18.2109 24.4531c24.9414 33.4951 49.4336 66.5967 73.6484 99.5264c-4.51855 15.916 -7.76172 32.5029 -9.45215 49.3506c-6.97949 69.5244 -0.875977 135.346 16.5254 189.375c-24.6143 35.375 -49.5107 70.9492 -74.9844 107.072
l-17.5732 24.9189l49.8379 35.1416l17.5684 -24.9131c18.5547 -26.3164 36.7656 -52.3105 54.8438 -78.1885c4.21875 6.54688 8.62012 12.833 13.3438 18.6045c21.3984 26.1279 45.9346 41.2461 70.959 43.7188c30.1084 2.99902 58.4648 -6.12598 82.0254 -26.3057
c8.55371 -7.3291 16.1318 -15.7773 22.873 -24.9414c14.8457 21.0547 29.7588 42.2812 44.7764 63.7471l17.4795 24.9805l49.9658 -34.959l-17.4795 -24.9854c-21.3154 -30.4688 -42.4209 -60.4717 -63.4258 -90.1582c17.6846 -50.0596 21.1328 -99.377 21.6045 -107.854
c3.29297 -59.3018 -4.33008 -117.827 -21.0498 -165.227zM239.151 529.212c-7.55078 -9.21875 -14.9619 -21.2256 -21.6533 -35.8115c16.9863 -24.4863 33.8174 -48.9014 50.5596 -73.2832c20.501 28.5391 40.9795 57.2109 61.5244 86.1494
c-7.03516 13.4492 -15.1514 24.8467 -24.2988 32.6855c-9.62988 8.24902 -19.6201 12.1963 -31.0791 12.1963c-1.72363 0 -3.48145 -0.09375 -5.27734 -0.271484c-6.33105 -0.621094 -17.4736 -6.6416 -29.7754 -21.665zM192.03 315.02
c12.7559 17.5127 25.4678 35.0137 38.1406 52.5322c-11.4814 16.7588 -22.9902 33.5283 -34.5654 50.3096c-4.77832 -29.8086 -6.48047 -64.2236 -3.5752 -102.842zM327.031 212.515c1.24219 2.17285 2.46387 4.45215 3.67285 6.79688
c-21.3379 31.7822 -42.6533 63.3154 -64.0078 94.7148c-18.7432 -25.8398 -37.5693 -51.668 -56.5508 -77.5684c3.62598 -8.22168 7.66211 -15.9717 12.1641 -22.9238c12.7344 -19.6748 28.667 -33.0459 44.8604 -37.6523
c13.3662 -3.81445 25.7451 -1.23633 36.7998 7.63965c7.81641 6.25879 15.7881 16.2871 23.0615 28.9932zM354.469 293.177c5.27246 29.3877 7.21191 61.6621 5.3877 94.5361c-0.832031 14.9902 -2.97168 31.1055 -6.23145 47.166
c-16.3154 -22.873 -32.6191 -45.6133 -48.9453 -68.2871c16.6201 -24.3867 33.2129 -48.8564 49.7891 -73.415z" />
    <glyph glyph-name="yen" unicode="&#xa5;" horiz-adv-x="350" 
d="M259.958 281.515c-18.6543 1.72363 -36.9141 2.75391 -55.0527 3.23047c-0.316406 -20.2178 -0.538086 -40.3252 -0.637695 -60.3379c20.2129 -0.482422 40.5361 -1.61328 61.3252 -3.53711l30.3633 -2.81055l-5.62695 -60.7207l-30.3633 2.81055
c-18.8594 1.74609 -37.3086 2.7832 -55.6582 3.24902c0.304688 -51.6621 1.28613 -103.54 3.02734 -157.236l0.986328 -30.4736l-60.9531 -1.96777l-0.986328 30.4736c-1.75195 54.085 -2.74414 106.346 -3.05469 158.385
c-18.1445 -0.948242 -36.4443 -2.4502 -55.1992 -4.65625l-30.2803 -3.56445l-7.12402 60.5654l30.2803 3.55859c21.166 2.49512 41.7998 4.16895 62.2676 5.16699c0.09375 20.0127 0.321289 40.1143 0.625977 60.3271
c-18.3271 -0.948242 -36.8154 -2.46191 -55.7695 -4.69043l-30.2803 -3.56445l-7.12402 60.5654l30.2803 3.55957c20.9941 2.47266 41.4561 4.12988 61.752 5.13379c-13.6484 53.2031 -68.8584 269.658 -86.7705 359.146l-5.9873 29.8975l59.7949 11.9688l5.9873 -29.9033
c11.1982 -55.9414 38.1299 -165.879 59.457 -250.997c20.5176 82.4521 46.4346 189.823 59.4844 256.536l5.85449 29.9199l59.8447 -11.7031l-5.85449 -29.9199c-21.0439 -107.593 -73.0605 -311.597 -86.6035 -364.257c18.9932 -0.538086 38.1025 -1.625 57.6221 -3.43262
l30.3633 -2.81055l-5.62695 -60.7207z" />
    <glyph glyph-name="section" unicode="&#xa7;" horiz-adv-x="312" 
d="M260.888 571.74l-60.9482 2.35352l1.1748 30.4688c1.02051 26.4102 -6.76855 46.168 -21.3594 54.1846c-10.0732 5.54395 -22.4473 4.46289 -33.1025 -2.89355c-23.001 -15.877 -32.6855 -54.084 -25.9004 -102.221c1.65234 -11.7471 5.23926 -22.0811 9.84082 -28.3457
c3.90234 -5.31641 8.11523 -9.97363 12.7002 -14.3418l23.1064 -16.5537l-0.919922 -1.28027c2.13965 -1.54102 4.3457 -3.09863 6.62988 -4.70117l1.04199 -0.726562c17.5518 -12.3066 37.4375 -26.249 54.5176 -48.1523
c20.334 -26.0781 32.4639 -58.8691 34.1602 -92.3145c1.46875 -29.0605 -6.78613 -83.9102 -42.9531 -126.431c4.37402 -6.33691 8.57617 -13.0557 12.418 -20.4619c10.084 -19.4248 17.6289 -42.3701 21.8037 -66.3408
c3.70312 -21.2598 6.49121 -53.2412 -1.23633 -84.9072c-17.5566 -71.9248 -60.8809 -96.7168 -96.1885 -96.7168c-3.04395 0 -6.02637 0.188477 -8.93164 0.538086c-46.9219 5.72656 -94.127 56.0859 -93.7832 155.696l0.105469 30.4902l60.9814 -0.205078
l-0.105469 -30.4902c-0.210938 -62.0898 23.3779 -92.9072 40.1924 -94.958c12.2295 -1.375 29.5703 13.5381 38.4902 50.1045c4.08594 16.7256 4.22461 38.0303 0.405273 59.9893c-3.12109 17.9004 -8.59863 34.7422 -15.8496 48.707
c-12.7725 24.6035 -30.4629 40.2373 -50.9473 58.3428c-15.4287 13.6318 -31.3838 27.7295 -46.0078 46.5508c-12.1797 15.667 -20.373 31.3672 -25.0518 47.998c-6.29199 22.3633 -6.85742 49.5107 -1.60742 76.4365c4.12988 21.1553 15.4668 53.2871 32.0371 82.3643
c-1.39746 1.73535 -2.80566 3.43164 -4.1582 5.27734c-13.4883 18.3828 -18.8994 40.5576 -21.0674 55.9189c-14.5244 103.047 31.2832 146.864 51.6514 160.918c29.6201 20.4395 66.8301 22.8008 97.1152 6.14746c35.5742 -19.5527 54.8613 -59.6396 52.9209 -109.977z
M132.312 441.864c-9.85645 -19.9521 -16.6016 -40.2432 -18.8857 -51.9795c-3.41504 -17.4961 -3.24902 -35.0859 0.454102 -48.252c2.53906 -9.01953 7.14551 -17.6289 14.4961 -27.0869c11.126 -14.3252 24.2979 -25.9619 38.2461 -38.2861
c3.51465 -3.11035 7.12402 -6.33105 10.7549 -9.61816c18.5049 25.7285 24.5312 58.2871 23.5615 77.4854c-1.04785 20.7451 -8.83105 41.8506 -21.3486 57.9053c-11.4648 14.708 -26.0225 24.9082 -41.4287 35.707l-1.05371 0.743164
c-1.55273 1.08691 -3.17676 2.23438 -4.7959 3.38184z" />
    <glyph glyph-name="copyright" unicode="&#xa9;" horiz-adv-x="503" 
d="M451.721 403.283c5.63281 -119.795 -10.8496 -237.419 -45.2148 -322.721c-3.8916 -9.65723 -8.02148 -19.0146 -12.29 -27.8232c-15.3506 -31.6768 -32.6807 -56.79 -51.5186 -74.6523c-25.4512 -24.126 -55.0713 -36.5273 -86.0107 -36.5273
c-13.083 0 -26.4043 2.21777 -39.748 6.70801c-42.3711 14.2529 -80.0459 49.6553 -108.945 102.404c-28.8164 52.5938 -47.9648 120.178 -53.9189 190.295c-25.4346 299.506 72.3125 514.099 179.567 526.611c37.4258 4.34668 71.5918 -6.3916 101.684 -31.9316
c82.8623 -70.3389 112.149 -242.012 116.396 -332.363zM349.942 103.348c31.2061 77.4512 46.0967 185.734 40.8633 297.069c-4.09082 87.1416 -32.752 235.946 -94.9473 288.739c-14.4971 12.3066 -29.8145 18.3604 -46.5957 18.3604
c-2.81055 0 -5.66016 -0.171875 -8.54883 -0.509766c-55.46 -6.46973 -150.152 -175.016 -125.871 -460.879c5.25 -61.8457 21.8096 -120.854 46.6289 -166.162c21.1055 -38.5068 47.71 -64.7568 74.9131 -73.9043c23.1064 -7.75 44.7656 -2.29492 64.3574 16.2764
c13.2939 12.6006 26.6377 32.3027 38.5898 56.9775c3.66406 7.56738 7.23438 15.6504 10.6104 24.0322zM267.745 250.299l7.89355 29.4443l58.9082 -15.7832l-7.89453 -29.4541c-15.0176 -56.042 -44.6816 -75.2012 -69.6123 -75.2012
c-4.05273 0 -7.97754 0.504883 -11.6973 1.44141c-44.167 11.1426 -60.1162 76.9297 -64.917 104.698c-7.50586 43.3516 -7.14551 95.8896 0.987305 144.137c5.39941 32.0703 13.3271 57.6992 23.5664 76.1709c21.8701 39.4492 52.7871 41.8604 72.6064 31.959
c12.4404 -6.21973 22.6299 -18.0059 29.4648 -34.0879c6.74707 -15.8555 10.9326 -37.0488 12.7842 -64.7949l2.03418 -30.4189l-60.8477 -4.06348l-2.0293 30.4238c-1.03125 15.3232 -2.77148 26.0781 -4.50098 33.4678
c-5.11719 -12.1348 -9.61914 -29.0381 -12.9453 -48.7852c-7.03516 -41.7227 -7.41211 -86.7764 -1.04199 -123.604c4.43457 -25.6064 11.6689 -42.332 16.9629 -50.7637c3.09863 4.87891 6.99609 12.9619 10.2783 25.2139z" />
    <glyph glyph-name="softhyphen" unicode="&#xad;" horiz-adv-x="0" 
 />
    <glyph glyph-name="registered" unicode="&#xae;" horiz-adv-x="503" 
d="M451.721 403.283c5.63281 -119.795 -10.8486 -237.419 -45.2139 -322.721c-3.8916 -9.65723 -8.02148 -19.0146 -12.29 -27.8232l-0.00585938 -0.00585938c-15.3564 -31.6826 -32.6865 -56.7959 -51.5127 -74.6465c-25.4512 -24.126 -55.0713 -36.5273 -86.0107 -36.5273
c-13.083 0 -26.4043 2.21777 -39.748 6.70801c-42.3711 14.2529 -80.0459 49.6553 -108.945 102.404c-28.8164 52.5938 -47.9648 120.178 -53.9189 190.295c-25.4346 299.506 72.3125 514.099 179.567 526.611c37.4199 4.34668 71.5859 -6.3916 101.683 -31.9316
c82.8623 -70.3389 112.149 -242.012 116.396 -332.363zM349.943 103.348c31.2061 77.4512 46.0967 185.733 40.8633 297.068c-4.09082 87.1416 -32.752 235.946 -94.9473 288.739c-14.4971 12.3066 -29.8145 18.3604 -46.5957 18.3604
c-2.81055 0 -5.66016 -0.171875 -8.54883 -0.509766c-55.46 -6.46973 -150.152 -175.016 -125.871 -460.879c5.25 -61.8457 21.8096 -120.854 46.6289 -166.162c21.1055 -38.5068 47.71 -64.7568 74.9131 -73.9043c23.1064 -7.75 44.7656 -2.29492 64.3574 16.2764
c13.2881 12.5898 26.6318 32.2979 38.5957 56.9844c3.66406 7.56738 7.23438 15.6445 10.6045 24.0264zM287.881 268.331c9.03613 -18.6543 18.3828 -37.9463 30.6016 -58.8457l15.3896 -26.3213l-52.6484 -30.7793l-15.3838 26.3271
c-6.43066 10.9873 -12.0303 21.376 -17.1807 31.3936c0.0996094 -7.03516 0.176758 -13.9814 0.292969 -21.083l0.488281 -30.4854l-60.9756 -0.969727l-0.482422 30.4902c-1.62402 102.221 -1.8125 196.736 -0.592773 297.433l0.188477 15.5947l12.7617 8.97559
c24.043 16.9033 45.3643 15.2676 59.002 10.9375c35.9453 -11.4482 52.8037 -51.9346 57.1172 -64.0645c8.46484 -23.8213 11.1982 -52.8818 7.32324 -77.7285c-3.97461 -25.3848 -14.7686 -47.5537 -32.0986 -65.9033c-5.80469 -6.14258 -11.8252 -11.5195 -18.0176 -16.21
c5.01758 -9.81836 9.67969 -19.4033 14.2148 -28.7607zM263.533 388.613c2.31152 14.8242 0.53418 33.6348 -4.5332 47.9043c-2.85547 8.02734 -7.09668 15.1787 -10.9326 20.0127c-0.327148 -34.083 -0.488281 -67.6064 -0.477539 -101.107
c8.80371 9.40234 13.876 19.9629 15.9434 33.1904z" />
    <glyph glyph-name="mu" unicode="&#xb5;" horiz-adv-x="393" 
d="M342.338 -49.0254l0.941406 -30.4805l-60.9531 -1.90723l-0.953125 30.4736c-1.27539 40.7959 -2.24023 98.8828 -2.97754 162.619c-24.7246 -76.2432 -55.9746 -112.184 -96.7373 -113.669c-29.2158 -1.10352 -52.2168 17.0576 -70.4062 59.4287
c-0.105469 -31.8711 -0.182617 -61.7627 -0.232422 -88.7334c-0.111328 -57.1562 -0.105469 -113.01 1.14746 -167.854c0.693359 -30.4736 1.84082 -62.5273 7.49023 -90.1016l6.12012 -29.875l-59.7393 -12.2295l-6.12012 29.8701
c-6.6582 32.5303 -7.95508 67.7051 -8.70898 100.951c-1.26367 55.5371 -1.26953 111.801 -1.1582 169.361c0.271484 143.561 1.24707 369.867 3.07617 536.18l-2.13965 29.1494l2.4668 0.182617l0.0273438 2.47266l29.1826 -0.327148l29.1436 2.14551l0.182617 -2.4668
l2.47266 -0.0273438l-0.327148 -29.249c0.648438 -9.21387 1.3252 -23.1064 2.16797 -40.5469c2.86621 -58.9629 7.65039 -157.652 19.3867 -245.854c17.3906 -130.755 39.5596 -156.683 44.8369 -161.117c6.43652 3.06055 40.4141 27.2979 68.8311 198.666
c19.4805 117.488 26.0664 240.792 26.7598 267.38l60.9697 -0.776367c0 -4.15234 0.366211 -417.36 5.25 -573.666z" />
    <glyph glyph-name="paragraph" unicode="&#xb6;" horiz-adv-x="440" 
d="M389.42 -46.292l0.489258 -30.4932l-60.9756 -0.969727l-0.488281 30.4854c-1.41895 89.2988 -2.58887 229.539 -3.62598 362.013c-26.5654 -18.6162 -53.5137 -32.7246 -79.542 -41.7773c0.892578 -115.887 1.92383 -235.748 3.25391 -319.259l0.482422 -30.4902
l-60.9756 -0.969727l-0.488281 30.4854c-1.29199 81.0273 -2.29492 196.021 -3.1709 308.487c-1.13672 -0.0273438 -2.30078 -0.116211 -3.42578 -0.116211c-8.22168 0 -16.1885 0.670898 -23.8496 2.04004c-15.877 2.83301 -39.4326 8.93066 -60.6094 29.1436
c-20.0186 19.1035 -34.8203 48.4414 -41.6836 82.6182c-5.78809 28.8389 -6.37598 63.8145 -1.64746 98.4854c4.06934 29.8418 11.4316 59.5176 21.2773 85.8057c24.2148 64.6348 61.1748 110.448 105.015 132.024l-0.0556641 1.72363l4.04102 0.12793
c14.0869 6.39746 28.8281 10.4053 44.085 11.6689c33.5068 2.75488 66.165 -8.16113 93.9893 -30.3086c-0.244141 15.5557 -0.493164 27.8242 -0.748047 35.957l-0.958984 30.4736l60.9531 1.91797l0.953125 -30.4736c1.3252 -42.1992 2.41699 -183.254 3.68652 -346.578
c1.13086 -146.017 2.41699 -311.508 4.01953 -412.021zM167.827 323.174c5.02832 -0.892578 10.4219 -1.21973 16.0928 -1.05371c-0.0556641 7.41797 -0.111328 14.8135 -0.166992 22.1367c-0.820312 108.618 -1.60156 212.591 -2.50488 274.159
c-19.4473 -18.3887 -36.6992 -45.9355 -49.6934 -80.623c-8.27637 -22.1084 -14.4912 -47.2275 -17.9561 -72.6455c-3.83594 -28.1064 -3.47559 -55.8916 1.01465 -78.2383c6.18652 -30.8174 18.8428 -45.5801 23.9932 -50.4971
c7.43457 -7.10156 15.6279 -10.8105 29.2207 -13.2383zM320.146 388.429l4.06934 3.54395c-0.509766 66.209 -1.01953 129.784 -1.5293 183.182l-8.93652 15.4834c-18.8877 32.7246 -44.7158 51.6455 -71.9414 53.3525c1.08105 -55.083 1.94629 -169.456 2.92773 -299.273
c0.0107422 -2.02344 0.0273438 -4.08594 0.0439453 -6.11523c24.6807 11.4199 50.6748 28.3564 75.3662 49.8271z" />
    <glyph glyph-name="questiondown" unicode="&#xbf;" horiz-adv-x="301" 
d="M190.916 115.773l60.0879 -10.3408l-5.17188 -30.0469c-15.9434 -92.6582 -62.8604 -153.778 -116.235 -153.778c-3.49219 0 -6.99609 0.260742 -10.5381 0.792969c-23.2617 3.49219 -42.4102 18.416 -53.9248 42.0264
c-13.1328 26.9316 -15.1172 62.0898 -15.1279 80.6504c-0.0166016 28.3613 3.89746 54.9551 7.72852 77.2354c7.04102 40.8906 16.2217 80.085 25.1025 117.999c4.50684 19.2256 9.16895 39.1162 13.4434 58.8184c10.4609 48.1748 22.4854 112.094 22.5908 179.361
l0.0439453 30.4902l60.9814 -0.0996094l-0.0439453 -30.4902c-0.111328 -73.0225 -12.873 -141.072 -23.9775 -192.202c-4.37988 -20.1846 -9.09766 -40.3193 -13.6602 -59.7949c-8.67578 -37.0381 -17.6514 -75.334 -24.376 -114.429
c-3.39258 -19.7305 -6.85742 -43.1025 -6.84082 -66.8516c0.0107422 -21.9805 3.44824 -42.6641 8.95898 -53.9619c3.79785 -7.79492 6.96289 -8.2666 8.1543 -8.44434c13.6436 -2.23438 45.3369 31.5547 57.6328 103.019zM120.205 618.993l-2.58887 30.3809
c-1.31348 15.4668 -1.94531 23.9316 -1.94531 47.1104v30.4902h60.9814v-30.4902c0 -21.6152 0.576172 -28.4121 1.72949 -41.9443l2.58301 -30.3799z" />
    <glyph glyph-name="Agrave" unicode="&#xc0;" horiz-adv-x="352" 
d="M87.3086 754.978l-27.5811 -12.9961l-25.9893 55.166l27.5859 12.9941c67.002 31.5664 127.34 53.5029 195.645 71.127l29.5264 7.62305l15.2344 -59.0459l-29.5205 -7.61719c-64.4629 -16.6367 -121.485 -37.376 -184.9 -67.251zM334.37 11.4219l1.14062 -30.4766
l-60.9365 -2.29492l-1.14746 30.4688c-0.704102 18.6826 -1.20898 39.6992 -1.64648 62.0957c-37.7637 0.265625 -92.2861 0.110352 -141.271 -0.0283203c-17.8506 -0.0439453 -35.0029 -0.09375 -50.5146 -0.121094
c-0.0224609 -15.1396 -0.0166016 -29.5752 -0.00585938 -43.1016l0.00585938 -50.1152h-60.9814l-0.00585938 50.0713c-0.0722656 106.767 -0.183594 268.101 16.126 404.482c13.8486 115.765 43.7793 269.664 143.423 269.664c132.717 0 147.99 -264.907 153.401 -584.937
c0.654297 -38.873 1.27539 -75.5947 2.41211 -105.708zM130.337 132.173c48.4629 0.132812 102.323 0.293945 140.375 0.0332031c-1.85156 107.814 -4.68457 237.698 -19.7139 341.366c-21.9258 151.188 -57.9658 167.509 -72.4404 167.509
c-13.3828 0 -58.9082 -15.5664 -82.874 -215.917c-11.2373 -93.9717 -14.4639 -201.148 -15.3672 -293.113c15.3779 0.0224609 32.3525 0.0722656 50.0205 0.12207z" />
    <glyph glyph-name="AE" unicode="&#xc6;" horiz-adv-x="562" 
d="M482.742 167.607l60.6191 -6.67285l-3.32617 -30.3135c-15.2061 -138.499 -93.3779 -152.652 -116.972 -153.694c-1.60742 -0.0722656 -3.20996 -0.105469 -4.7959 -0.105469c-33.9443 0 -62.4443 16.293 -85.3789 48.5908
c0.149414 -4.79492 0.304688 -9.50195 0.476562 -14.0088l1.14746 -30.4688l-60.9365 -2.29492l-1.14746 30.4688c-0.704102 18.6768 -1.20898 39.6982 -1.64648 62.0947c-37.7588 0.260742 -92.2812 0.105469 -141.271 -0.0273438
c-17.8506 -0.0439453 -35.0029 -0.09375 -50.5146 -0.121094c-0.0224609 -15.1396 -0.0166016 -29.5752 -0.00585938 -43.1016l0.00585938 -50.1152h-60.9814l-0.00585938 50.0713c-0.0722656 106.767 -0.183594 268.101 16.126 404.482
c13.8486 115.765 43.7793 269.664 143.423 269.664c62.5107 0 98.9609 -58.791 120.604 -154.421c19.0205 63.5918 56.0635 144.686 121.363 144.686c22.5967 0 43.6299 -9.66797 60.8379 -27.9619c49.2061 -52.3271 68.2158 -175.853 56.5078 -367.145l0.615234 -31.6543
l-30.4854 -0.592773c-16.5088 -0.316406 -40.9902 -0.427734 -67.4727 -0.427734c-32.0703 0 -67.0732 0.161133 -94.4258 0.277344c-4.92871 0.0224609 -9.57422 0.0449219 -13.9482 0.0673828c1.63574 -27.2363 4.55176 -53.5693 8.83105 -78.2832
c16.626 -96.0508 46.0635 -150.401 80.3906 -148.728c29.8311 1.31348 52.4551 39.4102 59.041 99.4268zM129.327 132.174c48.4688 0.132812 102.328 0.293945 140.375 0.0332031c-1.85156 107.814 -4.68457 237.698 -19.7139 341.366
c-21.9258 151.188 -57.9658 167.509 -72.4404 167.509c-13.3828 0 -58.9082 -15.5664 -82.874 -215.917c-11.2373 -93.9717 -14.4639 -201.148 -15.3672 -293.113c15.3779 0.0224609 32.3525 0.0722656 50.0205 0.12207zM342.22 468.956
c-7.89453 -46.8506 -12.0801 -95.5898 -12.5684 -143.083c4.87891 -0.0224609 10.1182 -0.0449219 15.7227 -0.0722656c38.7891 -0.161133 93.0127 -0.399414 131.957 -0.171875c10.4443 216.455 -25.1299 279.659 -41.4004 296.956
c-7.38379 7.84961 -12.8994 8.75879 -16.4082 8.75879c-26.6045 0 -62.7334 -75.8828 -77.3027 -162.388z" />
    <glyph glyph-name="Ccedilla" unicode="&#xc7;" horiz-adv-x="292" 
d="M229.095 167.607l60.6162 -6.66016l-3.32617 -30.3135c-11.043 -100.607 -55.3037 -135.577 -87.7461 -147.596c4.35742 -21.4766 9.43555 -43.2686 15.4668 -65.9863l7.82227 -29.4707l-58.9414 -15.6387l-7.82227 29.4648
c-7.2793 27.4189 -13.3271 53.6191 -18.3223 79.4697c-53.7803 16.1875 -90.918 81.626 -110.599 195.317c-15.7217 90.8789 -14.9238 201.282 2.18945 302.899c5.99805 35.6016 40.8184 213.201 137.429 213.234h0.0322266c54.373 0 93.7168 -51.9395 105.265 -138.954
l4.01367 -30.2246l-60.4541 -8.02148l-4.00781 30.2246c-6.6084 49.8379 -25.4629 86 -44.8213 86h-0.00585938c-26.6152 -0.0107422 -62.7441 -75.8877 -77.3184 -162.387c-16.0156 -95.0918 -16.8301 -198.006 -2.2334 -282.365
c9.08105 -52.4551 22.0039 -92.376 37.4434 -117.605c-1.30859 12.4014 -2.4834 24.8916 -3.40332 37.6641l-2.18945 30.4131l60.8262 4.36816l2.18945 -30.4072c1.60254 -22.3027 3.875 -43.8398 6.78516 -65.2051c19.0596 14.2305 32.8799 46.7559 37.7861 91.4717z" />
    <glyph glyph-name="Egrave" unicode="&#xc8;" horiz-adv-x="308" 
d="M69.7549 754.978l-27.5859 -12.9951l-25.9893 55.166l27.5801 12.9941c66.9961 31.5605 127.34 53.4971 195.649 71.126l29.5264 7.62305l15.2393 -59.0459l-29.5205 -7.61719c-64.4678 -16.6367 -121.496 -37.376 -184.899 -67.251zM229.093 167.606l60.6133 -6.66016
l-3.32617 -30.3135c-15.2061 -138.499 -93.373 -152.652 -116.967 -153.694c-1.60742 -0.0722656 -3.20996 -0.105469 -4.7959 -0.105469c-68.9307 0 -115.465 67.0234 -138.371 199.353c-15.7275 90.873 -14.9297 201.271 2.18945 302.899
c5.99805 35.6074 40.8184 213.234 137.44 213.234c22.5967 0 43.6299 -9.66797 60.8379 -27.9619c49.2061 -52.3271 68.2158 -175.853 56.5078 -367.145l0.615234 -31.6543l-30.4854 -0.592773c-16.5088 -0.316406 -40.9902 -0.427734 -67.4727 -0.427734
c-32.0703 0 -67.0732 0.161133 -94.4258 0.277344c-4.92871 0.0224609 -9.57422 0.0449219 -13.9482 0.0673828c1.63574 -27.2363 4.55176 -53.5693 8.83105 -78.2832c16.626 -96.0508 46.0137 -150.202 80.3955 -148.728c29.8252 1.31348 52.4492 39.4102 59.0352 99.4268z
M88.5625 468.956c-7.88867 -46.8506 -12.0752 -95.5957 -12.5635 -143.083c4.87891 -0.0224609 10.1182 -0.0449219 15.7227 -0.0722656c38.7949 -0.161133 93.0127 -0.399414 131.957 -0.171875c10.4443 216.455 -25.1299 279.659 -41.4004 296.956
c-7.38379 7.84961 -12.8994 8.75879 -16.4082 8.75879c-26.6104 0 -62.7334 -75.8828 -77.3076 -162.388z" />
    <glyph glyph-name="Igrave" unicode="&#xcc;" horiz-adv-x="121" 
d="M176.756 888.892l15.2393 -59.0469l-29.5205 -7.61719c-64.4678 -16.6367 -121.496 -37.376 -184.899 -67.251l-27.5859 -12.9941l-25.9893 55.166l27.5801 12.9941c66.9961 31.5605 127.34 53.4971 195.649 71.126zM92.1582 663.111
c-2.93848 -226.151 -2.55078 -437.723 1.23047 -665.819l0.504883 -30.4854l-60.9756 -1.00879l-0.504883 30.4854c-3.78613 228.713 -4.17969 440.86 -1.23047 667.621l0.393555 30.4902l60.9756 -0.797852z" />
    <glyph glyph-name="Ntilde" unicode="&#xd1;" horiz-adv-x="338" 
d="M98.9893 826.408l-27.5879 -12.9941l-25.9893 55.166l27.5801 12.9941c41.8223 19.708 76.1162 8.73145 103.674 -0.116211c22.4688 -7.20703 41.8721 -13.4102 67.7002 -6.76367l29.5264 7.62305l15.2402 -59.0518l-29.5205 -7.61719
c-13.3047 -3.43164 -25.6113 -4.80078 -37.0371 -4.80078c-25.418 0 -46.4893 6.75781 -64.5176 12.5342c-26.3271 8.4375 -39.832 12.0908 -59.0684 3.02637zM308.983 -12.7139l0.432617 -30.9355h-30.9287c-77.5068 0 -108.186 145.174 -155.751 401.755
c-9.55176 51.5342 -20.7725 112.066 -32.3145 163.718c-1.01465 -174.771 -0.288086 -344.554 2.20703 -524.625l0.420898 -30.4854l-60.9756 -0.842773l-0.420898 30.4854c-3.1709 229.028 -3.49219 441.465 -1.01367 668.553l0.327148 29.8418l29.8359 0.321289h0.553711
c58.4756 0 79.5088 -100.143 121.348 -325.845c15.5723 -84.0205 31.6768 -170.902 49.9209 -239.234c5.0166 -18.7988 9.76172 -34.4766 14.1748 -47.5654c-2.13477 196.498 -2.1123 383.571 0.0390625 581.411l0.333008 30.4902l60.9814 -0.665039l-0.333008 -30.4854
c-2.49512 -229.267 -2.12402 -444.036 1.16309 -675.892z" />
    <glyph glyph-name="Ograve" unicode="&#xd2;" horiz-adv-x="324" 
d="M77.5479 754.978l-27.5859 -12.9951l-25.9893 55.166l27.5859 12.9941c67.002 31.5605 127.34 53.4971 195.649 71.126l29.5264 7.62305l15.2393 -59.0459l-29.5205 -7.61719c-64.4678 -16.6367 -121.496 -37.376 -184.905 -67.251zM307.303 377.227
c3.79785 -102.094 -7.32422 -202.36 -30.4971 -275.105c-2.65039 -8.32715 -5.4502 -16.332 -8.31641 -23.8047c-10.4883 -27.3584 -22.4297 -49.1729 -35.4961 -64.834c-19.0645 -22.8564 -43.0576 -34.875 -67.7998 -34.875c-10.5605 0 -21.2549 2.18457 -31.7656 6.6582
c-30.9727 13.1719 -57.998 44.7217 -78.1602 91.2451c-19.4639 44.9268 -32.3975 102.576 -36.4111 162.321c-10.1895 151.671 8.8252 255.067 26.5762 315.101c24.6699 83.4277 61.0977 132.745 102.576 138.865c24.6914 3.60938 48.4795 -3.37012 68.8086 -20.2734
c79.7412 -66.3027 89.6201 -272.059 90.4854 -295.298zM218.702 120.643c21.1221 66.2861 31.2012 158.984 27.6592 254.325c-3.59766 96.8936 -28.8438 217.67 -68.5312 250.672c-6.90723 5.7373 -12.5947 7.12891 -17.1348 7.12891
c-1.36328 0 -2.62695 -0.12793 -3.79102 -0.299805c-5.26074 -1.05371 -31.4434 -21.7764 -53.5576 -97.7529c-22.6631 -77.8672 -31.0615 -181.496 -23.6494 -291.794c3.55957 -52.9814 14.7578 -103.469 31.5225 -142.17
c19.0762 -44.0117 38.5684 -56.1807 46.0693 -59.3682c4.68457 -1.99023 14.4355 -6.12598 28.877 11.165c8.63672 10.3506 17.4121 26.8154 25.3789 47.5986v0.0107422c2.4502 6.38086 4.85645 13.2715 7.15723 20.4844z" />
    <glyph glyph-name="Oslash" unicode="&#xd8;" horiz-adv-x="324" 
d="M306.31 377.227c3.79199 -102.099 -7.32227 -202.368 -30.5117 -275.107c-2.64453 -8.30469 -5.44434 -16.3154 -8.31641 -23.8047c-10.4883 -27.3584 -22.4297 -49.1729 -35.4912 -64.834c-19.0645 -22.8516 -43.0635 -34.876 -67.8057 -34.876
c-6.38086 0 -12.8115 0.90332 -19.2197 2.52246c-7.49512 -45.4922 -14.6357 -83.8047 -21.3105 -111.462l-7.15137 -29.6426l-59.2793 14.3027l7.15137 29.6426c7.61719 31.5547 15.9717 78.3271 24.8584 134.485c-13.1221 15.3447 -24.9023 34.8369 -34.9639 58.0596
c-19.4639 44.9102 -32.3975 102.565 -36.417 162.315c-10.1836 151.677 8.83105 255.073 26.582 315.106c24.6699 83.4277 61.0977 132.745 102.576 138.865c14.3252 2.08984 28.3232 0.509766 41.5391 -4.39062c12.834 72.1738 25.7178 132.456 38.5898 172.643
l9.30273 29.0381l58.0762 -18.6045l-9.30273 -29.0381c-13.9092 -43.4355 -28.3564 -115.183 -42.7705 -200.518c55.4375 -84.0654 63.1104 -244.352 63.8643 -264.703zM127.182 280.411c16.6143 119.135 33.5156 240.29 50.5459 344.424
c-0.299805 0.254883 -0.59375 0.55957 -0.893555 0.808594c-6.90723 5.7373 -12.5947 7.12891 -17.1348 7.12891c-1.36328 0 -2.62695 -0.12793 -3.79102 -0.299805c-5.26074 -1.05371 -31.4434 -21.7764 -53.5576 -97.7529
c-22.6631 -77.8672 -31.0615 -181.496 -23.6494 -291.8c3.09863 -46.1133 11.9912 -90.3301 25.3018 -126.536c7.50098 51.6396 15.2676 107.293 23.1787 164.027zM217.703 120.637c21.127 66.2861 31.21 158.989 27.668 254.33
c-1.8291 49.2178 -9.25195 104.577 -21.3096 151.488c-12.501 -82.502 -24.791 -170.608 -36.4883 -254.469c-11.3809 -81.6094 -22.4521 -160.979 -32.958 -229.821c0.609375 -0.299805 1.16895 -0.56543 1.67383 -0.776367
c4.68457 -1.99023 14.4414 -6.12598 28.8828 11.165c8.63184 10.3506 17.4072 26.8154 25.3789 47.6045v0.00585938c2.45605 6.3916 4.8623 13.2822 7.15234 20.4727z" />
    <glyph glyph-name="Ugrave" unicode="&#xd9;" horiz-adv-x="361" 
d="M102.598 754.978l-27.5918 -12.9951l-25.9893 55.166l27.5859 12.9941c67.002 31.5605 127.346 53.4971 195.65 71.126l29.5264 7.62305l15.2393 -59.0459l-29.5205 -7.61719c-64.4629 -16.6367 -121.491 -37.376 -184.9 -67.251zM332.989 -2.70215l0.509766 -30.4912
l-60.9756 -1.03125l-0.509766 30.4854c-0.105469 6.48047 -0.182617 12.9053 -0.288086 19.375c-29.4092 -38.3789 -65.2832 -46.1348 -101.462 -46.1348h-1.05859c-25.5234 0 -49.1338 10.7441 -68.293 31.0674c-69.6797 73.915 -92.8799 290.726 -70.9268 662.805
l2.62207 46.4678l60.8867 -3.38184l-2.63281 -46.6729c-27.042 -458.262 22.4912 -583.512 54.4229 -617.384c10.0674 -10.6719 18.4717 -11.9082 23.9209 -11.9082h0.986328c30.0195 0.227539 71.1211 -0.0214844 94.7539 147.409l4.5459 28.3398
c-1.14746 152.791 -0.737305 304.296 1.29688 458.506l0.404297 30.4902l60.9756 -0.80957l-0.404297 -30.4854c-2.95508 -223.856 -2.55566 -441.914 1.22559 -666.646z" />
    <glyph glyph-name="germandbls" unicode="&#xdf;" horiz-adv-x="324" 
d="M259.992 124.377c22.6514 -17.7119 34.5674 -43.4297 34.4561 -74.3809c-0.105469 -27.7627 -11.4814 -50.7529 -32.8916 -66.4912c-24.0547 -17.6904 -57.5996 -23.3613 -90.7344 -23.3613c-57.3447 0 -113.48 16.9971 -117.14 18.1221l-21.1328 6.51367
l-0.371094 22.1084c-3.78613 225.131 -4.17969 433.952 -1.23047 657.16l0.249023 18.9873l17.1465 8.15527c39.2109 18.627 111.712 17.7842 165.165 -15.8936c44.1611 -27.8184 71.3916 -72.3457 80.9326 -132.317c4.19629 -26.3662 38.6455 -260.933 -42.7979 -375.018
c-7.15723 -10.0234 -15.1514 -18.8047 -23.7002 -26.5156c11.7578 -4.1416 22.6406 -9.71289 32.0488 -17.0693zM91.6426 640.987c-2.05664 -167.959 -2.20605 -328.297 -0.404297 -494.271c1.84082 0.283203 3.73145 0.566406 5.66602 0.849609
c35.0693 7.19531 79.9844 20.6338 105.108 55.8311c54.7998 76.7588 45.0312 249.43 32.209 330.008c-6.75781 42.46 -24.1592 72.0029 -53.2139 90.3086c-27.6914 17.4404 -64.7178 21.21 -89.3652 17.2734zM225.436 32.6436
c4.14648 3.04883 7.98828 7.29785 8.02734 17.5928c0.0605469 15.4336 -5.85449 22.0469 -11.0098 26.0879c-22.1865 17.3682 -72.2461 17.0684 -114.412 11.2637c-5.69336 -1.15332 -11.082 -2.15137 -16.0547 -3.04395
c0.244141 -17.8174 0.509766 -35.7344 0.792969 -53.7354c50.6367 -12.0576 110.132 -14.7295 132.656 1.83496z" />
    <glyph glyph-name="agrave" unicode="&#xe0;" horiz-adv-x="353" 
d="M87.3086 754.978l-27.5811 -12.9961l-25.9893 55.166l27.5859 12.9941c67.002 31.5664 127.34 53.5029 195.645 71.127l29.5264 7.62305l15.2344 -59.0459l-29.5205 -7.61719c-64.4629 -16.6367 -121.485 -37.376 -184.9 -67.251zM334.37 11.4219l1.14062 -30.4766
l-60.9365 -2.29492l-1.14746 30.4688c-0.704102 18.6826 -1.20898 39.6992 -1.64648 62.0957c-37.7637 0.265625 -92.2861 0.110352 -141.271 -0.0283203c-17.8506 -0.0439453 -35.0029 -0.09375 -50.5146 -0.121094
c-0.0224609 -15.1396 -0.0166016 -29.5752 -0.00585938 -43.1016l0.00585938 -50.1152h-60.9814l-0.00585938 50.0713c-0.0722656 106.767 -0.183594 268.101 16.126 404.482c13.8486 115.765 43.7793 269.664 143.423 269.664c132.717 0 147.99 -264.907 153.401 -584.937
c0.654297 -38.873 1.27539 -75.5947 2.41211 -105.708zM130.337 132.173c48.4629 0.132812 102.323 0.293945 140.375 0.0332031c-1.85156 107.814 -4.68457 237.698 -19.7139 341.366c-21.9258 151.188 -57.9658 167.509 -72.4404 167.509
c-13.3828 0 -58.9082 -15.5664 -82.874 -215.917c-11.2373 -93.9717 -14.4639 -201.148 -15.3672 -293.113c15.3779 0.0224609 32.3525 0.0722656 50.0205 0.12207z" />
    <glyph glyph-name="ae" unicode="&#xe6;" horiz-adv-x="563" 
d="M483.742 167.607l60.6191 -6.67285l-3.32617 -30.3135c-15.2061 -138.499 -93.3779 -152.652 -116.972 -153.694c-1.60742 -0.0722656 -3.20996 -0.105469 -4.7959 -0.105469c-33.9443 0 -62.4443 16.293 -85.3789 48.5908
c0.149414 -4.79492 0.304688 -9.50195 0.476562 -14.0088l1.14746 -30.4688l-60.9365 -2.29492l-1.14746 30.4688c-0.704102 18.6768 -1.20898 39.6982 -1.64648 62.0947c-37.7588 0.260742 -92.2812 0.105469 -141.271 -0.0273438
c-17.8506 -0.0439453 -35.0029 -0.09375 -50.5146 -0.121094c-0.0224609 -15.1396 -0.0166016 -29.5752 -0.00585938 -43.1016l0.00585938 -50.1152h-60.9814l-0.00585938 50.0713c-0.0722656 106.767 -0.183594 268.101 16.126 404.482
c13.8486 115.765 43.7793 269.664 143.423 269.664c62.5107 0 98.9609 -58.791 120.604 -154.421c19.0205 63.5918 56.0635 144.686 121.363 144.686c22.5967 0 43.6299 -9.66797 60.8379 -27.9619c49.2061 -52.3271 68.2158 -175.853 56.5078 -367.145l0.615234 -31.6543
l-30.4854 -0.592773c-16.5088 -0.316406 -40.9902 -0.427734 -67.4727 -0.427734c-32.0703 0 -67.0732 0.161133 -94.4258 0.277344c-4.92871 0.0224609 -9.57422 0.0449219 -13.9482 0.0673828c1.63574 -27.2363 4.55176 -53.5693 8.83105 -78.2832
c16.626 -96.0508 46.0635 -150.401 80.3906 -148.728c29.8311 1.31348 52.4551 39.4102 59.041 99.4268zM130.327 132.174c48.4688 0.132812 102.328 0.293945 140.375 0.0332031c-1.85156 107.814 -4.68457 237.698 -19.7139 341.366
c-21.9258 151.188 -57.9658 167.509 -72.4404 167.509c-13.3828 0 -58.9082 -15.5664 -82.874 -215.917c-11.2373 -93.9717 -14.4639 -201.148 -15.3672 -293.113c15.3779 0.0224609 32.3525 0.0722656 50.0205 0.12207zM343.22 468.956
c-7.89453 -46.8506 -12.0801 -95.5898 -12.5684 -143.083c4.87891 -0.0224609 10.1182 -0.0449219 15.7227 -0.0722656c38.7891 -0.161133 93.0127 -0.399414 131.957 -0.171875c10.4443 216.455 -25.1299 279.659 -41.4004 296.956
c-7.38379 7.84961 -12.8994 8.75879 -16.4082 8.75879c-26.6045 0 -62.7334 -75.8828 -77.3027 -162.388z" />
    <glyph glyph-name="ccedilla" unicode="&#xe7;" horiz-adv-x="294" 
d="M230.095 167.607l60.6162 -6.66016l-3.32617 -30.3135c-11.043 -100.607 -55.3037 -135.577 -87.7461 -147.596c4.35742 -21.4766 9.43555 -43.2686 15.4668 -65.9863l7.82227 -29.4707l-58.9414 -15.6387l-7.82227 29.4648
c-7.2793 27.4189 -13.3271 53.6191 -18.3223 79.4697c-53.7803 16.1875 -90.918 81.626 -110.599 195.317c-15.7217 90.8789 -14.9238 201.282 2.18945 302.899c5.99805 35.6016 40.8184 213.201 137.429 213.234h0.0322266c54.373 0 93.7168 -51.9395 105.265 -138.954
l4.01367 -30.2246l-60.4541 -8.02148l-4.00781 30.2246c-6.6084 49.8379 -25.4629 86 -44.8213 86h-0.00585938c-26.6152 -0.0107422 -62.7441 -75.8877 -77.3184 -162.387c-16.0156 -95.0918 -16.8301 -198.006 -2.2334 -282.365
c9.08105 -52.4551 22.0039 -92.376 37.4434 -117.605c-1.30859 12.4014 -2.4834 24.8916 -3.40332 37.6641l-2.18945 30.4131l60.8262 4.36816l2.18945 -30.4072c1.60254 -22.3027 3.875 -43.8398 6.78516 -65.2051c19.0596 14.2305 32.8799 46.7559 37.7861 91.4717z" />
    <glyph glyph-name="egrave" unicode="&#xe8;" horiz-adv-x="309" 
d="M70.7549 754.978l-27.5859 -12.9951l-25.9893 55.166l27.5801 12.9941c66.9961 31.5605 127.34 53.4971 195.649 71.126l29.5264 7.62305l15.2393 -59.0459l-29.5205 -7.61719c-64.4678 -16.6367 -121.496 -37.376 -184.899 -67.251zM230.093 167.606l60.6133 -6.66016
l-3.32617 -30.3135c-15.2061 -138.499 -93.373 -152.652 -116.967 -153.694c-1.60742 -0.0722656 -3.20996 -0.105469 -4.7959 -0.105469c-68.9307 0 -115.465 67.0234 -138.371 199.353c-15.7275 90.873 -14.9297 201.271 2.18945 302.899
c5.99805 35.6074 40.8184 213.234 137.44 213.234c22.5967 0 43.6299 -9.66797 60.8379 -27.9619c49.2061 -52.3271 68.2158 -175.853 56.5078 -367.145l0.615234 -31.6543l-30.4854 -0.592773c-16.5088 -0.316406 -40.9902 -0.427734 -67.4727 -0.427734
c-32.0703 0 -67.0732 0.161133 -94.4258 0.277344c-4.92871 0.0224609 -9.57422 0.0449219 -13.9482 0.0673828c1.63574 -27.2363 4.55176 -53.5693 8.83105 -78.2832c16.626 -96.0508 46.0137 -150.202 80.3955 -148.728c29.8252 1.31348 52.4492 39.4102 59.0352 99.4268z
M89.5625 468.956c-7.88867 -46.8506 -12.0752 -95.5957 -12.5635 -143.083c4.87891 -0.0224609 10.1182 -0.0449219 15.7227 -0.0722656c38.7949 -0.161133 93.0127 -0.399414 131.957 -0.171875c10.4443 216.455 -25.1299 279.659 -41.4004 296.956
c-7.38379 7.84961 -12.8994 8.75879 -16.4082 8.75879c-26.6104 0 -62.7334 -75.8828 -77.3076 -162.388z" />
    <glyph glyph-name="igrave" unicode="&#xec;" horiz-adv-x="122" 
d="M176.756 888.892l15.2393 -59.0469l-29.5205 -7.61719c-64.4678 -16.6367 -121.496 -37.376 -184.899 -67.251l-27.5859 -12.9941l-25.9893 55.166l27.5801 12.9941c66.9961 31.5605 127.34 53.4971 195.649 71.126zM92.1582 663.111
c-2.93848 -226.151 -2.55078 -437.723 1.23047 -665.819l0.504883 -30.4854l-60.9756 -1.00879l-0.504883 30.4854c-3.78613 228.713 -4.17969 440.86 -1.23047 667.621l0.393555 30.4902l60.9756 -0.797852z" />
    <glyph glyph-name="ntilde" unicode="&#xf1;" horiz-adv-x="338" 
d="M98.9893 826.408l-27.5879 -12.9941l-25.9893 55.166l27.5801 12.9941c41.8223 19.708 76.1162 8.73145 103.674 -0.116211c22.4688 -7.20703 41.8721 -13.4102 67.7002 -6.76367l29.5264 7.62305l15.2402 -59.0518l-29.5205 -7.61719
c-13.3047 -3.43164 -25.6113 -4.80078 -37.0371 -4.80078c-25.418 0 -46.4893 6.75781 -64.5176 12.5342c-26.3271 8.4375 -39.832 12.0908 -59.0684 3.02637zM308.983 -12.7139l0.432617 -30.9355h-30.9287c-77.5068 0 -108.186 145.174 -155.751 401.755
c-9.55176 51.5342 -20.7725 112.066 -32.3145 163.718c-1.01465 -174.771 -0.288086 -344.554 2.20703 -524.625l0.420898 -30.4854l-60.9756 -0.842773l-0.420898 30.4854c-3.1709 229.028 -3.49219 441.465 -1.01367 668.553l0.327148 29.8418l29.8359 0.321289h0.553711
c58.4756 0 79.5088 -100.143 121.348 -325.845c15.5723 -84.0205 31.6768 -170.902 49.9209 -239.234c5.0166 -18.7988 9.76172 -34.4766 14.1748 -47.5654c-2.13477 196.498 -2.1123 383.571 0.0390625 581.411l0.333008 30.4902l60.9814 -0.665039l-0.333008 -30.4854
c-2.49512 -229.267 -2.12402 -444.036 1.16309 -675.892z" />
    <glyph glyph-name="ograve" unicode="&#xf2;" horiz-adv-x="325" 
d="M77.5479 754.978l-27.5859 -12.9951l-25.9893 55.166l27.5859 12.9941c67.002 31.5605 127.34 53.4971 195.649 71.126l29.5264 7.62305l15.2393 -59.0459l-29.5205 -7.61719c-64.4678 -16.6367 -121.496 -37.376 -184.905 -67.251zM307.303 377.227
c3.79785 -102.094 -7.32422 -202.36 -30.4971 -275.105c-2.65039 -8.32715 -5.4502 -16.332 -8.31641 -23.8047c-10.4883 -27.3584 -22.4297 -49.1729 -35.4961 -64.834c-19.0645 -22.8564 -43.0576 -34.875 -67.7998 -34.875c-10.5605 0 -21.2549 2.18457 -31.7656 6.6582
c-30.9727 13.1719 -57.998 44.7217 -78.1602 91.2451c-19.4639 44.9268 -32.3975 102.576 -36.4111 162.321c-10.1895 151.671 8.8252 255.067 26.5762 315.101c24.6699 83.4277 61.0977 132.745 102.576 138.865c24.6914 3.60938 48.4795 -3.37012 68.8086 -20.2734
c79.7412 -66.3027 89.6201 -272.059 90.4854 -295.298zM218.702 120.643c21.1221 66.2861 31.2012 158.984 27.6592 254.325c-3.59766 96.8936 -28.8438 217.67 -68.5312 250.672c-6.90723 5.7373 -12.5947 7.12891 -17.1348 7.12891
c-1.36328 0 -2.62695 -0.12793 -3.79102 -0.299805c-5.26074 -1.05371 -31.4434 -21.7764 -53.5576 -97.7529c-22.6631 -77.8672 -31.0615 -181.496 -23.6494 -291.794c3.55957 -52.9814 14.7578 -103.469 31.5225 -142.17
c19.0762 -44.0117 38.5684 -56.1807 46.0693 -59.3682c4.68457 -1.99023 14.4355 -6.12598 28.877 11.165c8.63672 10.3506 17.4121 26.8154 25.3789 47.5986v0.0107422c2.4502 6.38086 4.85645 13.2715 7.15723 20.4844z" />
    <glyph glyph-name="divide" unicode="&#xf7;" horiz-adv-x="369" 
d="M288.414 360.469l30.4082 -2.24023l-4.48535 -60.8203l-30.4072 2.23926c-66.4199 4.88965 -127.074 3.52051 -196.698 -4.45117l-30.291 -3.47559l-6.94043 60.5879l30.291 3.4707c73.5654 8.4375 137.757 9.87305 208.123 4.68945zM210.403 411.543l-7.0957 -29.6533
l-59.3066 14.1807l7.09082 29.6592c2.90527 12.1348 5.22266 25.0186 6.8916 38.3018l3.80273 30.252l60.5039 -7.61133l-3.80273 -30.252c-1.94629 -15.4785 -4.66309 -30.5801 -8.08398 -44.877zM157.982 259.035l3.80273 30.251l60.5039 -7.61133l-3.80859 -30.252
c-1.94629 -15.4834 -4.66797 -30.585 -8.08301 -44.877l-7.09082 -29.6533l-59.3066 14.1807l7.09082 29.6592c2.89941 12.1299 5.22266 25.0195 6.8916 38.3027z" />
    <glyph glyph-name="oslash" unicode="&#xf8;" horiz-adv-x="325" 
d="M307.31 377.227c3.79199 -102.099 -7.32227 -202.368 -30.5117 -275.107c-2.64453 -8.30469 -5.44434 -16.3154 -8.31641 -23.8047c-10.4883 -27.3584 -22.4297 -49.1729 -35.4912 -64.834c-19.0645 -22.8516 -43.0635 -34.876 -67.8057 -34.876
c-6.38086 0 -12.8115 0.90332 -19.2197 2.52246c-7.49512 -45.4922 -14.6357 -83.8047 -21.3105 -111.462l-7.15137 -29.6426l-59.2793 14.3027l7.15137 29.6426c7.61719 31.5547 15.9717 78.3271 24.8584 134.485c-13.1221 15.3447 -24.9023 34.8369 -34.9639 58.0596
c-19.4639 44.9102 -32.3975 102.565 -36.417 162.315c-10.1836 151.677 8.83105 255.073 26.582 315.106c24.6699 83.4277 61.0977 132.745 102.576 138.865c14.3252 2.08984 28.3232 0.509766 41.5391 -4.39062c12.834 72.1738 25.7178 132.456 38.5898 172.643
l9.30273 29.0381l58.0762 -18.6045l-9.30273 -29.0381c-13.9092 -43.4355 -28.3564 -115.183 -42.7705 -200.518c55.4375 -84.0654 63.1104 -244.352 63.8643 -264.703zM128.182 280.411c16.6143 119.135 33.5156 240.29 50.5459 344.424
c-0.299805 0.254883 -0.59375 0.55957 -0.893555 0.808594c-6.90723 5.7373 -12.5947 7.12891 -17.1348 7.12891c-1.36328 0 -2.62695 -0.12793 -3.79102 -0.299805c-5.26074 -1.05371 -31.4434 -21.7764 -53.5576 -97.7529
c-22.6631 -77.8672 -31.0615 -181.496 -23.6494 -291.8c3.09863 -46.1133 11.9912 -90.3301 25.3018 -126.536c7.50098 51.6396 15.2676 107.293 23.1787 164.027zM218.703 120.637c21.127 66.2861 31.21 158.989 27.668 254.33
c-1.8291 49.2178 -9.25195 104.577 -21.3096 151.488c-12.501 -82.502 -24.791 -170.608 -36.4883 -254.469c-11.3809 -81.6094 -22.4521 -160.979 -32.958 -229.821c0.609375 -0.299805 1.16895 -0.56543 1.67383 -0.776367
c4.68457 -1.99023 14.4414 -6.12598 28.8828 11.165c8.63184 10.3506 17.4072 26.8154 25.3789 47.6045v0.00585938c2.45605 6.3916 4.8623 13.2822 7.15234 20.4727z" />
    <glyph glyph-name="ugrave" unicode="&#xf9;" horiz-adv-x="363" 
d="M103.598 754.978l-27.5918 -12.9951l-25.9893 55.166l27.5859 12.9941c67.002 31.5605 127.346 53.4971 195.65 71.126l29.5264 7.62305l15.2393 -59.0459l-29.5205 -7.61719c-64.4629 -16.6367 -121.491 -37.376 -184.9 -67.251zM333.989 -2.70215l0.509766 -30.4912
l-60.9756 -1.03125l-0.509766 30.4854c-0.105469 6.48047 -0.182617 12.9053 -0.288086 19.375c-29.4092 -38.3789 -65.2832 -46.1348 -101.462 -46.1348h-1.05859c-25.5234 0 -49.1338 10.7441 -68.293 31.0674c-69.6797 73.915 -92.8799 290.726 -70.9268 662.805
l2.62207 46.4678l60.8867 -3.38184l-2.63281 -46.6729c-27.042 -458.262 22.4912 -583.512 54.4229 -617.384c10.0674 -10.6719 18.4717 -11.9082 23.9209 -11.9082h0.986328c30.0195 0.227539 71.1211 -0.0214844 94.7539 147.409l4.5459 28.3398
c-1.14746 152.791 -0.737305 304.296 1.29688 458.506l0.404297 30.4902l60.9756 -0.80957l-0.404297 -30.4854c-2.95508 -223.856 -2.55566 -441.914 1.22559 -666.646z" />
    <glyph glyph-name="OE" unicode="&#x152;" horiz-adv-x="550" 
d="M471.27 167.607l60.6211 -6.65527l-3.32617 -30.3135c-15.2061 -138.499 -93.3779 -152.652 -116.972 -153.694c-1.60742 -0.0722656 -3.20996 -0.105469 -4.7959 -0.105469c-58.2041 0 -100.437 47.7812 -125.96 142.318
c-1.61328 -5.81543 -3.27637 -11.5312 -5.03418 -17.0361c-2.65527 -8.31055 -5.44922 -16.3105 -8.31543 -23.7949v-0.00585938c-10.4883 -27.3584 -22.4346 -49.1729 -35.4961 -64.8398c-19.0645 -22.8516 -43.0635 -34.876 -67.8057 -34.876
c-10.5557 0 -21.25 2.18945 -31.7607 6.65723c-30.9727 13.1719 -57.998 44.7217 -78.1553 91.2451c-19.4697 44.9209 -32.4033 102.57 -36.417 162.32c-10.1836 151.671 8.83105 255.067 26.582 315.095c24.6641 83.4336 61.0918 132.751 102.57 138.871
c24.6914 3.60938 48.4795 -3.37012 68.8086 -20.2734c33.6445 -27.9736 54.8213 -80.7725 68.165 -134.214c18.1172 64.6621 55.5371 154.016 124.074 154.016c22.5967 0 43.6299 -9.66797 60.8379 -27.9619c49.2012 -52.3223 68.2109 -175.854 56.5029 -367.146
l0.615234 -31.6543l-30.4854 -0.592773c-16.5088 -0.316406 -40.9902 -0.427734 -67.4727 -0.427734c-32.0654 0 -67.0684 0.161133 -94.4209 0.277344c-4.92871 0.0224609 -9.57422 0.0449219 -13.9482 0.0673828c1.63574 -27.2363 4.55176 -53.5693 8.83105 -78.2832
c16.6201 -96.0508 46.002 -150.202 80.3896 -148.728c29.8311 1.31348 52.4551 39.4102 59.041 99.4268zM217.699 120.649c21.1221 66.2861 31.2041 158.984 27.6621 254.325c-3.60352 96.8936 -28.8496 217.675 -68.5371 250.671
c-6.90723 5.7373 -12.5947 7.12891 -17.1348 7.12891c-1.36914 0 -2.63281 -0.12793 -3.79102 -0.299805c-5.26074 -1.05371 -31.4492 -21.7764 -53.5576 -97.7529c-22.6631 -77.8672 -31.0615 -181.496 -23.6494 -291.8c3.55859 -52.9756 14.751 -103.468 31.5205 -142.163
c19.0762 -44.0117 38.5732 -56.1807 46.0684 -59.3682c4.68457 -1.99023 14.4473 -6.12598 28.8828 11.165c8.63184 10.3506 17.4072 26.8154 25.3789 47.5986c2.45605 6.39746 4.8623 13.2939 7.15723 20.4951zM330.739 468.964
c-7.89453 -46.8506 -12.0752 -95.5908 -12.5635 -143.084c4.87891 -0.0224609 10.1182 -0.0449219 15.7227 -0.0722656c38.7949 -0.166016 93.0127 -0.404297 131.957 -0.176758c10.4443 216.461 -25.1299 279.665 -41.4004 296.962
c-7.38379 7.84961 -12.8994 8.75879 -16.4082 8.75879c-26.6045 0 -62.7334 -75.8828 -77.3076 -162.388z" />
    <glyph glyph-name="oe" unicode="&#x153;" horiz-adv-x="551" 
d="M472.27 167.607l60.6211 -6.65527l-3.32617 -30.3135c-15.2061 -138.499 -93.3779 -152.652 -116.972 -153.694c-1.60742 -0.0722656 -3.20996 -0.105469 -4.7959 -0.105469c-58.2041 0 -100.437 47.7812 -125.96 142.318
c-1.61328 -5.81543 -3.27637 -11.5312 -5.03418 -17.0361c-2.65527 -8.31055 -5.44922 -16.3105 -8.31543 -23.7949v-0.00585938c-10.4883 -27.3584 -22.4346 -49.1729 -35.4961 -64.8398c-19.0645 -22.8516 -43.0635 -34.876 -67.8057 -34.876
c-10.5557 0 -21.25 2.18945 -31.7607 6.65723c-30.9727 13.1719 -57.998 44.7217 -78.1553 91.2451c-19.4697 44.9209 -32.4033 102.57 -36.417 162.32c-10.1836 151.671 8.83105 255.067 26.582 315.095c24.6641 83.4336 61.0918 132.751 102.57 138.871
c24.6914 3.60938 48.4795 -3.37012 68.8086 -20.2734c33.6445 -27.9736 54.8213 -80.7725 68.165 -134.214c18.1172 64.6621 55.5371 154.016 124.074 154.016c22.5967 0 43.6299 -9.66797 60.8379 -27.9619c49.2012 -52.3223 68.2109 -175.854 56.5029 -367.146
l0.615234 -31.6543l-30.4854 -0.592773c-16.5088 -0.316406 -40.9902 -0.427734 -67.4727 -0.427734c-32.0654 0 -67.0684 0.161133 -94.4209 0.277344c-4.92871 0.0224609 -9.57422 0.0449219 -13.9482 0.0673828c1.63574 -27.2363 4.55176 -53.5693 8.83105 -78.2832
c16.6201 -96.0508 46.002 -150.202 80.3896 -148.728c29.8311 1.31348 52.4551 39.4102 59.041 99.4268zM218.699 120.649c21.1221 66.2861 31.2041 158.984 27.6621 254.325c-3.60352 96.8936 -28.8496 217.675 -68.5371 250.671
c-6.90723 5.7373 -12.5947 7.12891 -17.1348 7.12891c-1.36914 0 -2.63281 -0.12793 -3.79102 -0.299805c-5.26074 -1.05371 -31.4492 -21.7764 -53.5576 -97.7529c-22.6631 -77.8672 -31.0615 -181.496 -23.6494 -291.8c3.55859 -52.9756 14.751 -103.468 31.5205 -142.163
c19.0762 -44.0117 38.5732 -56.1807 46.0684 -59.3682c4.68457 -1.99023 14.4473 -6.12598 28.8828 11.165c8.63184 10.3506 17.4072 26.8154 25.3789 47.5986c2.45605 6.39746 4.8623 13.2939 7.15723 20.4951zM331.739 468.964
c-7.89453 -46.8506 -12.0752 -95.5908 -12.5635 -143.084c4.87891 -0.0224609 10.1182 -0.0449219 15.7227 -0.0722656c38.7949 -0.166016 93.0127 -0.404297 131.957 -0.176758c10.4443 216.461 -25.1299 279.665 -41.4004 296.962
c-7.38379 7.84961 -12.8994 8.75879 -16.4082 8.75879c-26.6045 0 -62.7334 -75.8828 -77.3076 -162.388z" />
    <glyph glyph-name="perthousand" unicode="&#x2030;" horiz-adv-x="829" 
d="M407.886 707.229l-7.24512 -29.6201c-22.1807 -90.6846 -40.4697 -172.787 -59.834 -259.713c-29.1377 -130.805 -59.2627 -266.066 -103.846 -433.515l-7.84473 -29.459l-58.9297 15.6885l7.84473 29.459c44.2559 166.24 74.2529 300.881 103.252 431.087
c19.4307 87.2363 37.792 169.644 60.1221 260.938l7.24609 29.6201zM191.259 309.062c-13.0723 -15.667 -29.6592 -23.8799 -46.9229 -23.8799c-7.56738 0 -15.2617 1.57422 -22.8457 4.80078c-20.002 8.50391 -37.0596 27.9678 -49.333 56.2852
c-11.0596 25.5234 -18.3936 58.082 -20.6494 91.6768c-9.34082 139.009 25.6016 250.033 81.2715 258.249c17.3076 2.57227 33.9111 -2.27832 47.9863 -13.9814c46.4736 -38.6455 52.7939 -147.242 53.5918 -168.619c2.0957 -56.2803 -4.10254 -111.778 -17.0029 -152.259
c-1.49707 -4.69043 -3.08789 -9.24219 -4.72363 -13.5166v-0.0107422c-6.18164 -16.1211 -13.3721 -29.1602 -21.3721 -38.7451zM159.255 379.858c10.8438 34.0332 16.0059 81.9482 14.1709 131.476c-2.34473 63.0381 -19.0703 113.064 -30.502 123.231
c-12.834 -14.8076 -38.2959 -77.5352 -30.5684 -192.529c1.7793 -26.4326 7.52246 -52.499 15.7607 -71.5195c5.98145 -13.8037 12.002 -20.7227 15.4775 -23.3389c0.254883 0.265625 0.532227 0.582031 0.842773 0.948242c2.07324 2.48926 6.29785 8.59863 11.248 21.5098
c1.25879 3.26562 2.44531 6.68066 3.57031 10.2227zM487.772 381.173c46.4785 -38.6396 52.7998 -147.236 53.5928 -168.613c2.0957 -56.2852 -4.10254 -111.783 -17.0029 -152.264c-1.49121 -4.67871 -3.08203 -9.24121 -4.72852 -13.5264
c-6.17578 -16.1152 -13.3662 -29.1543 -21.3711 -38.7451c-13.0723 -15.667 -29.6592 -23.8828 -46.917 -23.8828c-7.57324 0 -15.2627 1.57422 -22.8467 4.80078c-19.9961 8.50391 -37.0596 27.9678 -49.333 56.291c-11.0654 25.5234 -18.3994 58.0762 -20.6553 91.6709
c-9.33594 139.021 25.6113 250.045 81.2812 258.25c17.3076 2.5498 33.9053 -2.27832 47.9805 -13.9814zM466.253 78.8008c10.8486 34.0381 16.0127 81.9648 14.1719 131.492c-2.33984 63.0381 -19.0654 113.064 -30.4971 123.231
c-12.834 -14.7959 -38.2959 -77.5234 -30.5684 -192.534c1.7793 -26.4268 7.52246 -52.4883 15.7607 -71.5029c5.98145 -13.8096 12.002 -20.7285 15.4775 -23.3506c0.254883 0.271484 0.538086 0.587891 0.842773 0.954102c2.0791 2.48926 6.30859 8.59863 11.2539 21.5049
v0.0107422c1.24707 3.25391 2.43359 6.66309 3.55859 10.1943zM778.535 212.556c2.08984 -56.2852 -4.10352 -111.783 -17.0098 -152.258c-1.49707 -4.69531 -3.08789 -9.24121 -4.72363 -13.5156v-0.00585938c-6.17578 -16.1211 -13.3662 -29.165 -21.3711 -38.7559
c-13.0723 -15.667 -29.6592 -23.8828 -46.917 -23.8828c-7.56738 0 -15.2617 1.57422 -22.8457 4.80078c-19.9961 8.50391 -37.0596 27.9678 -49.333 56.291c-11.0596 25.5176 -18.3936 58.0703 -20.6494 91.6709c-9.34082 139.021 25.6016 250.045 81.2773 258.25
c17.3076 2.5498 33.9053 -2.27832 47.9805 -13.9814c46.4736 -38.6348 52.7939 -147.236 53.5918 -168.613zM703.428 78.8125c10.8438 34.0273 16.0107 81.9541 14.1758 131.477c-2.34473 63.0381 -19.0703 113.064 -30.502 123.231
c-12.834 -14.7959 -38.2959 -77.5234 -30.5684 -192.528c1.77441 -26.4385 7.51758 -52.5 15.7559 -71.5098c5.98145 -13.8096 12.0078 -20.7285 15.4785 -23.3506c0.254883 0.265625 0.538086 0.586914 0.842773 0.953125c2.0791 2.48926 6.30859 8.59863 11.2539 21.5049
c1.24707 3.26562 2.43848 6.68066 3.56348 10.2227z" />
    <glyph glyph-name="Euro" unicode="&#x20ac;" horiz-adv-x="457" 
d="M347.981 164.281l58.9326 -15.7754l-7.88867 -29.4541c-23.0615 -86.0996 -67.5283 -137.745 -116.402 -137.745c-5.80957 0 -11.6807 0.726562 -17.585 2.21777c-78.1006 19.6689 -107.854 158.019 -115.11 199.946c-6.28125 36.2676 -9.87891 75.667 -10.9043 116.353
c-16.9746 -0.958984 -34.0996 -2.40039 -51.6182 -4.46289l-30.2803 -3.56445l-7.12402 60.5654l30.2803 3.55859c20.0908 2.36133 39.6992 3.96875 59.1406 4.98926c0.21582 5.81543 0.487305 11.6367 0.808594 17.4629
c-17.3682 -0.958984 -34.8916 -2.42285 -52.8252 -4.5293l-30.2803 -3.56445l-7.12402 60.5654l30.2803 3.55957c22.1855 2.61133 43.7949 4.34668 65.2266 5.31641c1.84082 15.6836 4.01367 31.2725 6.60254 46.6504c11.126 66.0645 27.1035 118.203 47.4824 154.969
c35.3633 63.7861 80.4893 70.2725 110.913 55.0439c19.3867 -9.69043 35.7461 -29.1543 47.2988 -56.2969c12.9561 -30.4404 21.416 -74.1357 25.1523 -129.895l2.04004 -30.4189l-60.8477 -4.07422l-2.04004 30.4238c-3.23242 48.2246 -10.2949 86.2881 -20.418 110.076
c-6.54688 15.373 -13.8311 23.3281 -18.46 25.6455c-4.50684 2.27832 -17.5068 -6.97461 -30.3125 -30.0693c-16.7754 -30.2744 -30.8457 -77.1416 -40.6855 -135.539c-2.00684 -11.8965 -3.76953 -23.915 -5.2998 -36.0059
c19.0869 -0.532227 38.29 -1.62402 57.9092 -3.43652l30.3633 -2.81055l-5.62695 -60.7207l-30.3633 2.81055c-19.625 1.81836 -38.8174 2.88281 -57.8984 3.31543c-0.349609 -5.82617 -0.649414 -11.6475 -0.887695 -17.4629
c21.2266 -0.420898 42.5703 -1.5957 64.4131 -3.61328l30.3633 -2.81055l-5.62695 -60.7207l-30.3633 2.81055c-20.1016 1.85742 -39.7432 2.94434 -59.2852 3.34863c0.969727 -37.4922 4.29004 -73.7373 10.0615 -107.061
c16.6758 -96.3555 50.9248 -146.438 69.918 -151.222c11.5977 -2.83887 41.1514 21.127 60.1826 92.1699z" />
  </font>
</defs>
</svg>
